找回密码

蓝光电影网

查看: 10|回复: 0

[剧情] 给朱丽叶的信/给茱丽叶的信 Letters.to.Juliet.2010.1080p.BluRay.x264.DTS-FGT 8.85GB

[复制链接]
蓝光币
515
发表于 2020-11-8 08:29:29 | 显示全部楼层 |阅读模式


◎译  名 给朱丽叶的信/给茱丽叶的信/致茱莉亚的信/茱丽叶恋爱信箱(港)
◎片  名 Letters to Juliet
◎年  代 2010
◎产  地 美国
◎类  别 剧情 / 笑剧 / 恋爱
◎语  言 英语
◎上映日期 2010-05-14
◎IMDb评分  6.5/10 from 91307 users
◎IMDb链接  https://www.imdb.com/title/tt0892318/
◎豆瓣评分 7.6/10 from 74424 users
◎豆瓣链接 https://movie.douban.com/subject/3346464/
◎片  长 106分钟(美国)
◎导  演 盖瑞·温尼克 Gary Winick
◎编  剧 约瑟·里韦拉 Jose Rivera / 蒂姆·沙利文 Tim Sullivan
◎主  演 阿曼达·塞弗里德 Amanda Seyfried
       盖尔·加西亚·贝纳尔 Gael García Bernal
       克里斯托弗·艾甘 Christopher Egan
       瓦妮莎·雷德格瑞夫 Vanessa Redgrave
       马西娅·德波尼斯 Marcia DeBonis
       弗兰科·内罗 Franco Nero
       阿什莉·利蕾 Ashley Lilley
◎标  签 恋爱 | 美国 | 浪漫 | 温情 | 文艺 | 温馨 | 笑剧 | 2010
◎简  介


  苏菲·霍尔(阿曼达·塞弗里德 Amanda Seyf 饰)是《纽约客》的观察员。她的未婚夫维克多为开餐馆忙碌着。他们来意大利的维罗纳观光。不外,维克多却醉心于品味美食,对她疏于照顾。两人豪情是以冲突丛生。苏菲闲逛到许愿墙下,发现很多人给朱丽叶写信。她很猎奇,尾随取信的 妇女,发现有四位密斯饰演朱丽叶,复书解答感情题目。苏菲被感动了,决议加入她们的队伍。她读到一封50年前的来信:克莱尔·史姑娘(瓦妮莎·雷德格瑞夫 Vanessa Redgrave 饰)报告了一段留有遗憾确昔时情。苏菲专心地回了信。没想到,某天,老人的孙子查理(克里斯·艾根 Chris Egan 饰)找上门来。她这才领会,老人读了她的信,决议重拾真爱。但查理感觉这很荒诞。在争论中,三小我配合踏上了寻爱之旅……
◎获奖情况
  第12届美国青少年挑选奖 ?(2010)
  最好恋爱笑剧电影(提名)
  最好恋爱笑剧电影女演员(提名) 阿曼达·塞弗里德
  1. Video
  2. ID                                       : 1
  3. Format                                   : AVC
  4. Format/Info                              : Advanced Video Codec
  5. Format profile                           : [email protected]
  6. Format settings                          : CABAC / 5 Ref Frames
  7. Format settings, CABAC                   : Yes
  8. Format settings, Reference frames        : 5 frames
  9. Codec ID                                 : V_MPEG4/ISO/AVC
  10. Duration                                 : 1 h 45 min
  11. Bit rate                                 : 10.5 Mb/s
  12. Width                                    : 1 920 pixels
  13. Height                                   : 816 pixels
  14. Display aspect ratio                     : 2.35:1
  15. Frame rate mode                          : Constant
  16. Frame rate                               : 23.976 FPS
  17. Color space                              : YUV
  18. Chroma subsampling                       : 4:2:0
  19. Bit depth                                : 8 bits
  20. Scan type                                : Progressive
  21. Bits/(Pixel*Frame)                       : 0.280
  22. Stream size                              : 7.56 GiB (85%)
  23. Writing library                          : x264 core 114 r1900 60ef1f8
  24. Encoding settings                        : cabac=1 / ref=5 / deblock=1:-3:-3 / analyse=0x3:0x113 / me=umh / subme=10 / psy=1 / psy_rd=1.00:0.00 / mixed_ref=1 / me_range=16 / chroma_me=1 / trellis=2 / 8x8dct=1 / cqm=0 / deadzone=21,11 / fast_pskip=0 / chroma_qp_offset=-2 / threads=12 / sliced_threads=0 / nr=0 / decimate=1 / interlaced=0 / constrained_intra=0 / bframes=9 / b_pyramid=2 / b_adapt=2 / b_bias=0 / direct=3 / weightb=1 / open_gop=0 / weightp=2 / keyint=250 / keyint_min=23 / scenecut=40 / intra_refresh=0 / rc=2pass / mbtree=0 / bitrate=10500 / ratetol=1.0 / qcomp=0.60 / qpmin=0 / qpmax=69 / qpstep=4 / cplxblur=20.0 / qblur=0.5 / ip_ratio=1.40 / pb_ratio=1.30 / aq=1:0.90
  25. Language                                 : English
  26. Default                                  : No
  27. Forced                                   : No

  28. Audio
  29. ID                                       : 2
  30. Format                                   : DTS
  31. Format/Info                              : Digital Theater Systems
  32. Codec ID                                 : A_DTS
  33. Duration                                 : 1 h 45 min
  34. Bit rate mode                            : Constant
  35. Bit rate                                 : 1 509 kb/s
  36. Channel(s)                               : 6 channels
  37. Channel layout                           : C L R Ls Rs LFE
  38. Sampling rate                            : 48.0 kHz
  39. Frame rate                               : 93.750 FPS (512 SPF)
  40. Bit depth                                : 24 bits
  41. Compression mode                         : Lossy
  42. Stream size                              : 1.11 GiB (13%)
  43. Language                                 : English
  44. Default                                  : No
  45. Forced                                   : No
复制代码









                                       
                                       

                                       
                                       
                                       




回复

使用道具 举报

懒得打字嘛,点击右侧快捷回复 【右侧内容,后台自定义】
您需要登录后才可以回帖 登录 | 立即加入

本版积分规则

Archiver|小黑屋| 蓝光电影网 |网站地图

Copyright © 2021 Comsenz Inc. Powered by 蓝光电影网

蓝光电影网

本站内容由用户自主分享和转载自互联网,转载目的在于传递更多信息,并不代表本网赞同其观点和对其真实性负责。

如有侵权、违反国家法律政策行为,请联系我们,我们会第一时间及时清除和处理!

举报反馈邮箱:[email protected]

快速回复 返回顶部 返回列表