找回密码

蓝光电影网

查看: 39|回复: 0

[剧情] 死因無可疑 Legally.Declared.Dead.2019.CHINESE.1080p.BluRay.x264-iKiW 8.11GB

[复制链接]
蓝光币
515
发表于 2020-11-7 13:09:38 | 显示全部楼层 |阅读模式


◎译  名 死因无可疑/Legally Declared Dead
◎片  名 死因無可疑
◎年  代 2019
◎产  地 中国香港
◎类  别 剧情 / 惊悚
◎语  言 粤语
◎上映日期 2019-11-13(香港电影节) / 2020-06-25(中国香港)
◎IMDb评分  5.6/10 from 68 users
◎IMDb链接  https://www.imdb.com/title/tt11469352/
◎豆瓣评分 6.1/10 from 380 users
◎豆瓣链接 https://movie.douban.com/subject/30394841/
◎片  长 110分钟
◎导  演 袁剑伟 Kim-Wai Yuen
◎编  剧 袁剑伟 Kim-Wai Yuen / 贵志祐介 Y?suke Kishi
◎主  演 黄秋生 Anthony Wong Chau-Sang
       林嘉欣 Karena Lam
       陈家乐 Carlos Chan
       汤怡 Kathy Tong
       廖启智 Kai Chi Liu
       欧阳伟豪 Benjamin Au Yeung
       欧锦棠 Stephen Au
       冯素波 So-Po Fung
       邓建明 Joey Tang
       廖骏雄 Chun Hung Liao
◎标  签 黄秋生 | 香港 | 香港电影 | 林嘉欣 | 惊悚 | 2019 | 悬疑 | 悬疑/黑色
◎简  介


  保险掮客人叶永信(陈家乐 饰)某天接到一通奥秘来电,电话中的男人问自杀后多久可以拿到补偿,随后他接到下属告诉有客户指定他去跟进保单,叶上门造访时亲眼目击一个孩子吊死在屋中,他随即认定客户为诈取保险金而杀戮儿子,决心黑暗对朱重德(黄秋生 饰)和沈子玲(林嘉欣 饰)佳耦展开观察,恐吓随即持续不断发生在他及情人文惠仪(汤怡 饰)身上,在又一路命案发生后,他惊诧发觉工作和他的判定并纷歧样…
  1. Video
  2. ID                                       : 1
  3. Format                                   : AVC
  4. Format/Info                              : Advanced Video Codec
  5. Format profile                           : [email protected]
  6. Format settings                          : CABAC / 6 Ref Frames
  7. Format settings, CABAC                   : Yes
  8. Format settings, Reference frames        : 6 frames
  9. Codec ID                                 : V_MPEG4/ISO/AVC
  10. Duration                                 : 1 h 49 min
  11. Bit rate                                 : 10 000 kb/s
  12. Width                                    : 1 920 pixels
  13. Height                                   : 714 pixels
  14. Display aspect ratio                     : 2.689
  15. Frame rate mode                          : Constant
  16. Frame rate                               : 24.000 FPS
  17. Color space                              : YUV
  18. Chroma subsampling                       : 4:2:0
  19. Bit depth                                : 8 bits
  20. Scan type                                : Progressive
  21. Bits/(Pixel*Frame)                       : 0.304
  22. Stream size                              : 7.62 GiB (94%)
  23. Writing library                          : x264 core 129 r2245+704+36 8e61944 tMod+MixAQ [[email protected]:2:0 X86_64]
  24. Encoding settings                        : cabac=1 / ref=6 / deblock=1:-1:-1 / analyse=0x3:0x133 / me=umh / subme=11 / psy=1 / fade_compensate=0.00 / psy_rd=1.05:0.10 / mixed_ref=1 / me_range=64 / chroma_me=1 / trellis=2 / 8x8dct=1 / cqm=0 / deadzone=21,11 / fast_pskip=0 / chroma_qp_offset=-3 / threads=12 / lookahead_threads=2 / sliced_threads=0 / nr=0 / decimate=0 / interlaced=0 / bluray_compat=0 / constrained_intra=0 / fgo=0 / bframes=10 / b_pyramid=2 / b_adapt=2 / b_bias=0 / direct=3 / weightb=1 / open_gop=0 / weightp=2 / keyint=250 / keyint_min=24 / scenecut=40 / intra_refresh=0 / rc=2pass / mbtree=0 / bitrate=10000 / ratetol=1.0 / qcomp=0.70 / qpmin=0 / qpmax=69 / qpstep=4 / cplxblur=20.0 / qblur=0.5 / ip_ratio=1.40 / pb_ratio=1.30 / aq=1 / aq-strength=0.90 / aq-sensitivity=10.00 / aq-ifactor=1.00 / aq-pfactor=1.00 / aq-bfactor=1.00 / aq2=0
  25. Language                                 : English
  26. Default                                  : Yes
  27. Forced                                   : No
  28. Audio
  29. ID                                       : 2
  30. ID in the original source medium         : 4352 (0x1100)
  31. Format                                   : AC-3
  32. Format/Info                              : Audio Coding 3
  33. Commercial name                          : Dolby Digital
  34. Codec ID                                 : A_AC3
  35. Duration                                 : 1 h 49 min
  36. Bit rate mode                            : Constant
  37. Bit rate                                 : 640 kb/s
  38. Channel(s)                               : 6 channels
  39. Channel layout                           : L R C LFE Ls Rs
  40. Sampling rate                            : 48.0 kHz
  41. Frame rate                               : 31.250 FPS (1536 SPF)
  42. Compression mode                         : Lossy
  43. Stream size                              : 501 MiB (6%)
  44. Language                                 : Chinese
  45. Service kind                             : Complete Main
  46. Default                                  : No
  47. Forced                                   : No
  48. Original source medium                   : Blu-ray
  49. Text #1
  50. ID                                       : 3
  51. Format                                   : UTF-8
  52. Codec ID                                 : S_TEXT/UTF8
  53. Codec ID/Info                            : UTF-8 Plain Text
  54. Duration                                 : 1 h 39 min
  55. Bit rate                                 : 36 b/s
  56. Count of elements                        : 1048
  57. Stream size                              : 26.9 KiB (0%)
  58. Title                                    : SRT
  59. Language                                 : English
  60. Default                                  : Yes
  61. Forced                                   : No
  62. Text #2
  63. ID                                       : 4
  64. Format                                   : UTF-8
  65. Codec ID                                 : S_TEXT/UTF8
  66. Codec ID/Info                            : UTF-8 Plain Text
  67. Duration                                 : 1 h 39 min
  68. Bit rate                                 : 32 b/s
  69. Count of elements                        : 1039
  70. Stream size                              : 23.9 KiB (0%)
  71. Language                                 : Chinese
  72. Default                                  : No
  73. Forced                                   : No
  74. Text #3
  75. ID                                       : 5
  76. Format                                   : UTF-8
  77. Codec ID                                 : S_TEXT/UTF8
  78. Codec ID/Info                            : UTF-8 Plain Text
  79. Duration                                 : 1 h 39 min
  80. Bit rate                                 : 32 b/s
  81. Count of elements                        : 1039
  82. Stream size                              : 23.9 KiB (0%)
  83. Language                                 : Chinese
  84. Default                                  : No
  85. Forced                                   : No
  86. Menu
  87. 00:00:00.000                             : en:绗?01 绔?
  88. 00:10:54.541                             : en:绗?02 绔?
  89. 00:20:53.291                             : en:绗?03 绔?
  90. 00:29:31.250                             : en:绗?04 绔?
  91. 00:37:19.250                             : en:绗?05 绔?
  92. 00:43:58.708                             : en:绗?06 绔?
  93. 00:51:03.875                             : en:绗?07 绔?
  94. 00:58:38.166                             : en:绗?08 绔?
  95. 01:08:29.083                             : en:绗?09 绔?
  96. 01:18:09.041                             : en:绗?10 绔?
  97. 01:27:52.458                             : en:绗?11 绔?
  98. 01:44:18.458                             : en:绗?12 绔?
复制代码






                                       
                                       

                                       
                                       
                                       




回复

使用道具 举报

懒得打字嘛,点击右侧快捷回复 【右侧内容,后台自定义】
您需要登录后才可以回帖 登录 | 立即加入

本版积分规则

Archiver|小黑屋| 蓝光电影网 |网站地图

Copyright © 2021 Comsenz Inc. Powered by 蓝光电影网

蓝光电影网

本站内容由用户自主分享和转载自互联网,转载目的在于传递更多信息,并不代表本网赞同其观点和对其真实性负责。

如有侵权、违反国家法律政策行为,请联系我们,我们会第一时间及时清除和处理!

举报反馈邮箱:[email protected]

快速回复 返回顶部 返回列表