找回密码

蓝光电影网

查看: 15|回复: 0

[剧情] 黎明之前 Stefan.Zweig.Farewell.to.Europe.2016.LIMITED.1080p.BluRay.x264-USURY 8.75GB

[复制链接]
蓝光币
511
发表于 2020-11-7 10:43:34 | 显示全部楼层 |阅读模式


◎译  名 拂晓之前/Before Dawn/Stefan Zweig, adieu l'Europe/Stefan Zweig: Farewell to Europe/斯蒂芬·茨威格:再会欧洲
◎片  名 Vor der Morgenr?te
◎年  代 2016
◎产  地 德国,奥天时,法国
◎类  别 剧情 / 列传
◎语  言 德语,英语,葡萄牙语,法语,西班牙语
◎上映日期 2016-06-02(德国)
◎IMDb评分  6.8/10 from 2031 users
◎IMDb链接  https://www.imdb.com/title/tt3397160/
◎豆瓣评分 7.3/10 from 697 users
◎豆瓣链接 https://movie.douban.com/subject/26700120/
◎片  长 106分钟
◎导  演 玛丽亚· 施拉德 Maria Schrader
◎编  剧 玛丽亚· 施拉德 Maria Schrader / 扬·硕姆伯格 Jan Schomburg
◎主  演 约瑟夫·哈德 Josef Hader
       巴巴拉·苏科瓦 Barbara Sukowa
       托马斯·勒马尔奎斯 Tómas Lemarquis
       纳威尔·佩雷兹·毕斯卡亚特 Nahuel Pérez Biscayart
       查理·哈纳 Charly Hübner
       莱恩·库德里亚维斯基 Lenn Kudrjawizki
       伊万·舍甫多夫 Ivan Shvedoff
       克里斯蒂娜·度·瑞格 Cristina do Rego
       尼古拉·布雷纳 Nicolau Breyner
       马蒂亚斯·勃兰特 Matthias Brandt
       奥斯卡·奥尔特加·桑切斯 Oscar Ortega Sánchez
       安德烈·谢曼斯基 André Szymanski
       曼努尔·科特兹 Manuel Cortez
       亚瑟·伊瓜尔 Arthur Igual
       Maria Vieira
       Jo?o Cabral
       Márcia Breia
◎标  签 列传 | 茨威格 | 德国 | 奥天时 | 二战 | 剧情 | 2016 | 法国
◎简  介


  影片报告了著名奥天时作家斯蒂芬·茨威格遭纳粹驱逐后在纽约、巴西等地的亡命之旅。茨威格身世敷裕犹太家庭,在三十岁时就已然成为了赫赫著名的文学大师,作品远销国内外。但继纳粹下台后,书作前后在德国、奥天时被禁,他也踏上了亡命之旅,最初客死异乡。茨威格平生写过、怜悯过很多人的不幸遭受,他的不幸遭受自然也获得了人们的怜悯。
◎获奖情况
  第30届欧洲电影奖 ?(2017)
  观众挑选奖
  最好男配角(提名) 约瑟夫·哈德
  1. Video
  2. ID                                       : 1
  3. Format                                   : AVC
  4. Format/Info                              : Advanced Video Codec
  5. Format profile                           : [email protected]
  6. Format settings                          : CABAC / 5 Ref Frames
  7. Format settings, CABAC                   : Yes
  8. Format settings, Reference frames        : 5 frames
  9. Codec ID                                 : V_MPEG4/ISO/AVC
  10. Duration                                 : 1 h 46 min
  11. Bit rate                                 : 10.3 Mb/s
  12. Width                                    : 1 920 pixels
  13. Height                                   : 800 pixels
  14. Display aspect ratio                     : 2.40:1
  15. Frame rate mode                          : Constant
  16. Frame rate                               : 24.000 FPS
  17. Color space                              : YUV
  18. Chroma subsampling                       : 4:2:0
  19. Bit depth                                : 8 bits
  20. Scan type                                : Progressive
  21. Bits/(Pixel*Frame)                       : 0.279
  22. Stream size                              : 7.63 GiB (87%)
  23. Writing library                          : x264 core 150 r2829 d1fe6fd
  24. Encoding settings                        : cabac=1 / ref=5 / deblock=1:-3:-3 / analyse=0x3:0x133 / me=umh / subme=9 / psy=1 / psy_rd=1.00:0.00 / mixed_ref=1 / me_range=16 / chroma_me=1 / trellis=2 / 8x8dct=1 / cqm=0 / deadzone=21,11 / fast_pskip=0 / chroma_qp_offset=-2 / threads=24 / lookahead_threads=2 / sliced_threads=0 / nr=0 / decimate=1 / interlaced=0 / bluray_compat=0 / constrained_intra=0 / bframes=3 / b_pyramid=2 / b_adapt=1 / b_bias=0 / direct=3 / weightb=1 / open_gop=0 / weightp=2 / keyint=250 / keyint_min=24 / scenecut=40 / intra_refresh=0 / rc_lookahead=50 / rc=2pass / mbtree=1 / bitrate=10298 / ratetol=1.0 / qcomp=0.60 / qpmin=0 / qpmax=69 / qpstep=4 / cplxblur=20.0 / qblur=0.5 / ip_ratio=1.40 / aq=1:1.00
  25. Language                                 : English
  26. Default                                  : Yes
  27. Forced                                   : No

  28. Audio
  29. ID                                       : 2
  30. Format                                   : DTS
  31. Format/Info                              : Digital Theater Systems
  32. Codec ID                                 : A_DTS
  33. Duration                                 : 1 h 46 min
  34. Bit rate mode                            : Constant
  35. Bit rate                                 : 1 509 kb/s
  36. Channel(s)                               : 6 channels
  37. Channel layout                           : C L R Ls Rs LFE
  38. Sampling rate                            : 48.0 kHz
  39. Frame rate                               : 93.750 FPS (512 SPF)
  40. Bit depth                                : 24 bits
  41. Compression mode                         : Lossy
  42. Stream size                              : 1.12 GiB (13%)
  43. Language                                 : German
  44. Default                                  : Yes
  45. Forced                                   : No

  46. Text
  47. ID                                       : 3
  48. Format                                   : UTF-8
  49. Codec ID                                 : S_TEXT/UTF8
  50. Codec ID/Info                            : UTF-8 Plain Text
  51. Duration                                 : 1 h 39 min
  52. Bit rate                                 : 62 b/s
  53. Count of elements                        : 1312
  54. Stream size                              : 45.5 KiB (0%)
  55. Title                                    : forced
  56. Language                                 : English
  57. Default                                  : Yes
  58. Forced                                   : Yes

  59. Menu
  60. 00:00:00.000                             : en:00:00:00.000
  61. 00:09:44.333                             : en:00:09:44.333
  62. 00:29:54.750                             : en:00:29:54.750
  63. 00:47:58.417                             : en:00:47:58.417
  64. 01:15:33.917                             : en:01:15:33.917
  65. 01:33:38.625                             : en:01:33:38.625
  66. 01:42:22.250                             : en:01:42:22.250
复制代码




                                       
                                       

                                       
                                       
                                       




回复

使用道具 举报

懒得打字嘛,点击右侧快捷回复 【右侧内容,后台自定义】
您需要登录后才可以回帖 登录 | 立即加入

本版积分规则

Archiver|小黑屋| 蓝光电影网 |网站地图

Copyright © 2021 Comsenz Inc. Powered by 蓝光电影网

蓝光电影网

本站内容由用户自主分享和转载自互联网,转载目的在于传递更多信息,并不代表本网赞同其观点和对其真实性负责。

如有侵权、违反国家法律政策行为,请联系我们,我们会第一时间及时清除和处理!

举报反馈邮箱:[email protected]

快速回复 返回顶部 返回列表