找回密码

蓝光电影网

查看: 20|回复: 0

[剧情] 一千零一夜第3部:迷醉之人 Arabian.Nights.Volume.III.The.Enchanted.One.2015.1080p.BluRay.x264-USURY 9.83GB

[复制链接]
蓝光币
519
发表于 2020-11-7 10:25:37 | 显示全部楼层 |阅读模式


◎译  名 一千零一夜第3部:迷醉之人/Arabian Nights – Volume 3: The Enchanted One/一千零一夜III:迷醉之人(台)
◎片  名 As Mil e Uma Noites: Volume 3, O Encantado
◎年  代 2015
◎产  地 葡萄牙,法国,德国,瑞士
◎类  别 剧情
◎语  言 英语,德语,葡萄牙语,法语,汉语普通话
◎上映日期 2015-05-16(戛纳电影节) / 2015-08-26(法国)
◎IMDb评分  6.4/10 from 1081 users
◎IMDb链接  https://www.imdb.com/title/tt4692242/
◎豆瓣评分 6.7/10 from 629 users
◎豆瓣链接 https://movie.douban.com/subject/26415097/
◎片  长 125分钟
◎导  演 米格尔·戈麦斯 Miguel Gomes
◎编  剧 提尔莫·舍罗 Telmo Churro / 米格尔·戈麦斯 Miguel Gomes / 马里亚娜·里卡多 Mariana Ricardo
◎主  演 克里斯塔·法亚特 Crista Alfaiate
       阿梅瑞科·席尔娃 Américo Silva
       阿马尔·波娜沙达 Amar Bounachada
       莱昂内尔·法郎克 Lionel Franc
       卡里托·科塔 Carloto Cotta
       埃尔维斯·巴里恩托斯 Elvis Barrientos
       赫维斯·迪亚斯纳斯 Hervés Diasnas
       奇科查帕斯 Chico Chapas
       贡萨洛·沃丁顿 Gon?alo Waddington
◎标  签 葡萄牙 | 2015 | 剧情 | 奇异 | 法国 | 戛纳 | 社会 | 瑞士
◎简  介


  「一千零一夜」终极曲《一千零一夜III:迷醉之人》,皇后雪哈拉莎德再次现身,因担忧落空说故事的才能,计画逃离皇宫,并陈述最初的故事。米格尔戈麦斯改以笔墨说明故事布景,将影象赋予诗意,令此片富有文学性与民族色彩,并透过记载片式的观察,显现荒诞当中的凄凉写实,为今世葡萄牙留下了不成言喻的浮世意象。
  1. Video
  2. ID                                       : 1
  3. Format                                   : AVC
  4. Format/Info                              : Advanced Video Codec
  5. Format profile                           : [email protected]
  6. Format settings                          : CABAC / 5 Ref Frames
  7. Format settings, CABAC                   : Yes
  8. Format settings, Reference frames        : 5 frames
  9. Codec ID                                 : V_MPEG4/ISO/AVC
  10. Duration                                 : 2 h 5 min
  11. Bit rate                                 : 9 696 kb/s
  12. Width                                    : 1 920 pixels
  13. Height                                   : 808 pixels
  14. Display aspect ratio                     : 2.40:1
  15. Frame rate mode                          : Constant
  16. Frame rate                               : 23.976 FPS
  17. Color space                              : YUV
  18. Chroma subsampling                       : 4:2:0
  19. Bit depth                                : 8 bits
  20. Scan type                                : Progressive
  21. Bits/(Pixel*Frame)                       : 0.261
  22. Stream size                              : 8.51 GiB (87%)
  23. Writing library                          : x264 core 148 r2692 64f4e24
  24. Encoding settings                        : cabac=1 / ref=5 / deblock=1:0:0 / analyse=0x3:0x133 / me=umh / subme=9 / psy=1 / psy_rd=1.00:0.00 / mixed_ref=1 / me_range=16 / chroma_me=1 / trellis=1 / 8x8dct=1 / cqm=0 / deadzone=21,11 / fast_pskip=0 / chroma_qp_offset=-2 / threads=12 / lookahead_threads=1 / sliced_threads=0 / nr=0 / decimate=1 / interlaced=0 / bluray_compat=0 / constrained_intra=0 / bframes=3 / b_pyramid=2 / b_adapt=2 / b_bias=0 / direct=3 / weightb=1 / open_gop=0 / weightp=2 / keyint=250 / keyint_min=23 / scenecut=40 / intra_refresh=0 / rc_lookahead=50 / rc=2pass / mbtree=1 / bitrate=9696 / ratetol=1.0 / qcomp=0.60 / qpmin=0 / qpmax=69 / qpstep=4 / cplxblur=20.0 / qblur=0.5 / ip_ratio=1.40 / aq=1:1.00
  25. Language                                 : English
  26. Default                                  : Yes
  27. Forced                                   : No

  28. Audio
  29. ID                                       : 2
  30. Format                                   : DTS
  31. Format/Info                              : Digital Theater Systems
  32. Codec ID                                 : A_DTS
  33. Duration                                 : 2 h 5 min
  34. Bit rate mode                            : Constant
  35. Bit rate                                 : 1 509 kb/s
  36. Channel(s)                               : 6 channels
  37. Channel layout                           : C L R Ls Rs LFE
  38. Sampling rate                            : 48.0 kHz
  39. Frame rate                               : 93.750 FPS (512 SPF)
  40. Bit depth                                : 24 bits
  41. Compression mode                         : Lossy
  42. Stream size                              : 1.32 GiB (13%)
  43. Language                                 : Portuguese
  44. Default                                  : Yes
  45. Forced                                   : No

  46. Text
  47. ID                                       : 3
  48. Format                                   : UTF-8
  49. Codec ID                                 : S_TEXT/UTF8
  50. Codec ID/Info                            : UTF-8 Plain Text
  51. Duration                                 : 1 h 53 min
  52. Bit rate                                 : 31 b/s
  53. Count of elements                        : 662
  54. Stream size                              : 26.5 KiB (0%)
  55. Title                                    : forced
  56. Language                                 : English
  57. Default                                  : Yes
  58. Forced                                   : Yes

  59. Menu
  60. 00:00:00.000                             : en:00:00:00.000
  61. 00:06:22.048                             : en:00:06:22.048
  62. 00:29:07.496                             : en:00:29:07.496
  63. 00:39:34.038                             : en:00:39:34.038
  64. 00:49:04.650                             : en:00:49:04.650
  65. 01:11:21.277                             : en:01:11:21.277
  66. 01:23:22.623                             : en:01:23:22.623
  67. 01:30:16.494                             : en:01:30:16.494
  68. 01:50:01.512                             : en:01:50:01.512
  69. 01:55:47.607                             : en:01:55:47.607
复制代码




                                       
                                       

                                       
                                       
                                       




回复

使用道具 举报

懒得打字嘛,点击右侧快捷回复 【右侧内容,后台自定义】
您需要登录后才可以回帖 登录 | 立即加入

本版积分规则

Archiver|小黑屋| 蓝光电影网 |网站地图

Copyright © 2021 Comsenz Inc. Powered by 蓝光电影网

蓝光电影网

本站内容由用户自主分享和转载自互联网,转载目的在于传递更多信息,并不代表本网赞同其观点和对其真实性负责。

如有侵权、违反国家法律政策行为,请联系我们,我们会第一时间及时清除和处理!

举报反馈邮箱:[email protected]

快速回复 返回顶部 返回列表