找回密码

蓝光电影网

查看: 10|回复: 0

[剧情] 魔咒/我的老公卡到陰 Abracadabra.2017.LIMITED.1080p.BluRay.x264-USURY 7.94GB

[复制链接]
蓝光币
515
发表于 2020-11-7 10:13:29 | 显示全部楼层 |阅读模式


◎译  名 魔咒/我的老公卡到陰(台)
◎片  名 Abracadabra
◎年  代 2017
◎产  地 西班牙
◎类  别 剧情 / 笑剧 / 奇异
◎语  言 西班牙语
◎上映日期 2017-08-04(西班牙)
◎IMDb评分  5.7/10 from 2296 users
◎IMDb链接  https://www.imdb.com/title/tt5187886/
◎豆瓣评分 /10 from 0 users
◎豆瓣链接 https://movie.douban.com/subject/26748133/
◎片  长 96分钟
◎导  演 巴勃罗·贝格尔 Pablo Berger
◎编  剧 巴勃罗·贝格尔 Pablo Berger
◎主  演 玛丽维尔·贝尔杜 Maribel Verdú
       安东尼奥·德·拉·托雷 Antonio de la Torre
       基姆·古铁雷斯 Quim Gutiérrez
       何塞·莫塔 José Mota
       乔瑟普·马利亚·波乌 Josep Maria Pou
◎标  签 西班牙 | 恋爱 | 2017 | 笑剧 | 奇异 | 2018 | 西语 | 鬼片單
◎简  介


  結褵25 年,卡洛斯口裡心裡只剩下皇家馬德里足球隊,曾經刺眼如烈陽的卡門也早已高掛舞鞋循分當個家庭主婦。無趣的生活彷彿沒有盡頭,直到卡洛斯下台擔任催眠秀的志願者,舞台上鬧劇般的表演,竟在溟溟当中推動了改變的齒輪。
  
  從不做家事的卡洛斯開始打掃,甚至與妻子熱情共舞。儘管卡門極度滿意這個浪漫、體貼,又有著卡洛斯表面的「新老公」,但心底還是滿滿的不安。究竟是催眠太成功,讓他變身新好汉子?還是催眠不成招鬼上門,搶走身體踢掉老公靈魂?卡門開始清查,沒想到竟牽扯出一樁多年前駭人聽聞的命案!
◎获奖情况
  第32届西班牙戈雅奖 ?(2018)
  最好男配角(提名) 安东尼奥·德·拉·托雷
  最好女配角(提名) 玛丽维尔·贝尔杜
  最好男配角(提名) 何塞·莫塔
  最好原创剧本(提名) 巴勃罗·贝格尔
  最好剪辑(提名)
  最好艺术指导(提名)
  最好打扮设想(提名)
  最好化装与发型(提名)
  1. Video
  2. ID                                       : 1
  3. Format                                   : AVC
  4. Format/Info                              : Advanced Video Codec
  5. Format profile                           : [email protected]
  6. Format settings                          : CABAC / 4 Ref Frames
  7. Format settings, CABAC                   : Yes
  8. Format settings, Reference frames        : 4 frames
  9. Codec ID                                 : V_MPEG4/ISO/AVC
  10. Duration                                 : 1 h 36 min
  11. Bit rate                                 : 10.3 Mb/s
  12. Width                                    : 1 920 pixels
  13. Height                                   : 1 040 pixels
  14. Display aspect ratio                     : 1.85:1
  15. Frame rate mode                          : Constant
  16. Frame rate                               : 24.000 FPS
  17. Color space                              : YUV
  18. Chroma subsampling                       : 4:2:0
  19. Bit depth                                : 8 bits
  20. Scan type                                : Progressive
  21. Bits/(Pixel*Frame)                       : 0.215
  22. Stream size                              : 6.93 GiB (87%)
  23. Writing library                          : x264 core 152 r2851 ba24899
  24. Encoding settings                        : cabac=1 / ref=4 / deblock=1:-3:-3 / analyse=0x3:0x133 / me=umh / subme=9 / psy=1 / psy_rd=1.00:0.00 / mixed_ref=1 / me_range=16 / chroma_me=1 / trellis=2 / 8x8dct=1 / cqm=0 / deadzone=21,11 / fast_pskip=0 / chroma_qp_offset=-2 / threads=18 / lookahead_threads=1 / sliced_threads=0 / nr=0 / decimate=1 / interlaced=0 / bluray_compat=0 / constrained_intra=0 / bframes=3 / b_pyramid=2 / b_adapt=1 / b_bias=0 / direct=3 / weightb=1 / open_gop=0 / weightp=2 / keyint=240 / keyint_min=24 / scenecut=40 / intra_refresh=0 / rc_lookahead=50 / rc=2pass / mbtree=1 / bitrate=10299 / ratetol=1.0 / qcomp=0.60 / qpmin=0 / qpmax=69 / qpstep=4 / cplxblur=20.0 / qblur=0.5 / ip_ratio=1.40 / aq=1:1.00
  25. Language                                 : English
  26. Default                                  : Yes
  27. Forced                                   : No

  28. Audio
  29. ID                                       : 2
  30. Format                                   : DTS
  31. Format/Info                              : Digital Theater Systems
  32. Codec ID                                 : A_DTS
  33. Duration                                 : 1 h 36 min
  34. Bit rate mode                            : Constant
  35. Bit rate                                 : 1 509 kb/s
  36. Channel(s)                               : 6 channels
  37. Channel layout                           : C L R Ls Rs LFE
  38. Sampling rate                            : 48.0 kHz
  39. Frame rate                               : 93.750 FPS (512 SPF)
  40. Bit depth                                : 24 bits
  41. Compression mode                         : Lossy
  42. Stream size                              : 1.02 GiB (13%)
  43. Language                                 : Spanish
  44. Default                                  : Yes
  45. Forced                                   : No

  46. Text
  47. ID                                       : 3
  48. Format                                   : UTF-8
  49. Codec ID                                 : S_TEXT/UTF8
  50. Codec ID/Info                            : UTF-8 Plain Text
  51. Duration                                 : 1 h 28 min
  52. Bit rate                                 : 31 b/s
  53. Count of elements                        : 750
  54. Stream size                              : 20.5 KiB (0%)
  55. Title                                    : English
  56. Language                                 : English
  57. Default                                  : Yes
  58. Forced                                   : Yes

  59. Menu
  60. 00:00:00.000                             : en:00:00:00.000
  61. 00:07:51.167                             : en:00:07:51.167
  62. 00:16:01.833                             : en:00:16:01.833
  63. 00:24:08.667                             : en:00:24:08.667
  64. 00:32:25.708                             : en:00:32:25.708
  65. 00:39:49.583                             : en:00:39:49.583
  66. 00:46:31.583                             : en:00:46:31.583
  67. 00:54:42.417                             : en:00:54:42.417
  68. 01:00:02.875                             : en:01:00:02.875
  69. 01:12:26.500                             : en:01:12:26.500
  70. 01:21:02.792                             : en:01:21:02.792
  71. 01:29:26.167                             : en:01:29:26.167
复制代码



                                       
                                       

                                       
                                       
                                       




回复

使用道具 举报

懒得打字嘛,点击右侧快捷回复 【右侧内容,后台自定义】
您需要登录后才可以回帖 登录 | 立即加入

本版积分规则

Archiver|小黑屋| 蓝光电影网 |网站地图

Copyright © 2021 Comsenz Inc. Powered by 蓝光电影网

蓝光电影网

本站内容由用户自主分享和转载自互联网,转载目的在于传递更多信息,并不代表本网赞同其观点和对其真实性负责。

如有侵权、违反国家法律政策行为,请联系我们,我们会第一时间及时清除和处理!

举报反馈邮箱:[email protected]

快速回复 返回顶部 返回列表