找回密码

蓝光电影网

查看: 15|回复: 0

[剧情] 诱惑法则/情爱磁场 The.Rules.of.Attraction.2002.1080p.BluRay.x264.DTS-FGT 10.06GB

[复制链接]
蓝光币
511
发表于 2020-11-6 11:49:17 | 显示全部楼层 |阅读模式


◎译  名 引诱法例/情爱磁场/残暴的引诱/男女玩过界
◎片  名 The Rules of Attraction
◎年  代 2002
◎产  地 美国,德国
◎类  别 剧情 / 笑剧 / 恋爱 / 惊悚
◎语  言 英语,德语
◎上映日期 2003-01-16
◎IMDb评分  6.7/10 from 49139 users
◎IMDb链接  https://www.imdb.com/title/tt0292644/
◎豆瓣评分 6.2/10 from 2093 users
◎豆瓣链接 https://movie.douban.com/subject/1306008/
◎片  长 110 分钟
◎导  演 罗杰·阿夫瑞 Roger Avary
◎编  剧 布莱特·伊斯顿·埃利斯 Bret Easton Ellis / 罗杰·阿夫瑞 Roger Avary
◎主  演 詹姆斯·范德比克 James Van Der Beek
       伊恩·萨默海尔德 Ian Somerhalder
       莎妮·索萨蒙 Shannyn Sossamon
       杰西卡·贝尔 Jessica Biel
       托马斯·伊恩·尼古拉斯 Thomas Ian Nicholas
       小克利夫顿·克林斯 Clifton Collins Jr.
       Cory Elgin
       C·罗伯特·嘉吉 C. Robert Cargill
       杰西·海曼 Jesse Heiman
       保罗·威廉姆斯 Paul Williams
       奥若拉·斯诺 Aurora Snow
       亚当·罗比特尔 Adam Robitel
       罗恩·杰里米 Ron Jeremy
       卡凡·瑞斯 Kavan Reece
       Tommy Ritter
       Giovanni Capitello
       斯凯勒·斯通 Skyler Stone
       凯特·波茨沃斯 Kate Bosworth
       杰伊·巴鲁切尔 Jay Baruchel
       Paul Oakenfold
       Keren Woodward
       Katja Schuurman
       拉塞尔·萨姆斯 Russell Sams
       埃里克·斯托尔兹 Eric Stoltz
       柯蒂斯·安徒生 Curtis Andersen
       琦普·帕杜 Kip Pardue
       克莱儿·克拉莫 Clare Kramer
       艾瑞克·兹曼达 Eric Szmanda
       Drew Wood
       Chasen Hampton
       费·唐纳薇 Faye Dunaway
       荷莉·豪利沃德 Holly Hollywood
       弗莱德·萨维奇 Fred Savage
       斯薇兹·昆茨 Swoosie Kurtz
       Trisha Upton
◎标  签 美国 | 青春 | 情色 | 美国电影 | 恋爱 | 同道 | 2002 | 电影
◎简  介


  这个复杂而又紊乱的故事发生在三个未老先衰的年轻人之间。肖恩(詹姆斯·范德比克 James Van Der Beek 饰)是个销售毒品的小贩,同时也是个双性恋者。一次偶然中,他发现自己的好友保罗(伊恩·萨默海尔德 Ian Somerhalder 饰)居然对他成心,而对于保罗的示爱,肖恩居然并不非常反感。
  
  作为肖恩的前女友,劳伦(莎妮·索萨蒙 Shannyn Sossamon 饰)一向对保罗的性取向耿耿于怀,同时,肖恩狂放不羁的风格和英俊帅气的表面也让劳伦没法自持。随着时候的流逝,三人之间的关系渐渐奇妙起来,每一小我的心中都有深藏不露的曩昔与危险,但却又不谋而合的挑选带上面具,肆意游走在性与愿望之间,游走在明智与感情的边沿。
  1. Video
  2. ID                                       : 1
  3. Format                                   : AVC
  4. Format/Info                              : Advanced Video Codec
  5. Format profile                           : [email protected]
  6. Format settings                          : CABAC / 4 Ref Frames
  7. Format settings, CABAC                   : Yes
  8. Format settings, Reference frames        : 4 frames
  9. Codec ID                                 : V_MPEG4/ISO/AVC
  10. Duration                                 : 1 h 50 min
  11. Bit rate                                 : 11.5 Mb/s
  12. Width                                    : 1 920 pixels
  13. Height                                   : 1 080 pixels
  14. Display aspect ratio                     : 16:9
  15. Frame rate mode                          : Constant
  16. Frame rate                               : 23.976 (24000/1001/189150) FPS
  17. Color space                              : YUV
  18. Chroma subsampling                       : 4:2:0
  19. Bit depth                                : 8 bits
  20. Scan type                                : Progressive
  21. Bits/(Pixel*Frame)                       : 0.231
  22. Stream size                              : 8.69 GiB (86%)
  23. Writing library                          : x264 core 115 r1995 c1e60b9
  24. Encoding settings                        : cabac=1 / ref=4 / deblock=1:-3:-3 / analyse=0x3:0x113 / me=umh / subme=10 / psy=1 / psy_rd=0.90:0.00 / mixed_ref=1 / me_range=64 / chroma_me=1 / trellis=2 / 8x8dct=1 / cqm=0 / deadzone=21,11 / fast_pskip=1 / chroma_qp_offset=-2 / threads=9 / sliced_threads=0 / nr=0 / decimate=1 / interlaced=0 / bluray_compat=0 / constrained_intra=0 / bframes=6 / b_pyramid=2 / b_adapt=2 / b_bias=0 / direct=1 / weightb=1 / open_gop=0 / weightp=2 / keyint=250 / keyint_min=23 / scenecut=40 / intra_refresh=0 / rc=2pass / mbtree=0 / bitrate=11500 / ratetol=1.0 / qcomp=0.60 / qpmin=0 / qpmax=69 / qpstep=4 / cplxblur=20.0 / qblur=0.5 / ip_ratio=1.40 / pb_ratio=1.30 / aq=1:1.00 / zones=153493,159277,q=40
  25. Language                                 : English
  26. Default                                  : Yes
  27. Forced                                   : No

  28. Audio
  29. ID                                       : 2
  30. Format                                   : DTS
  31. Format/Info                              : Digital Theater Systems
  32. Codec ID                                 : A_DTS
  33. Duration                                 : 1 h 50 min
  34. Bit rate mode                            : Constant
  35. Bit rate                                 : 1 510 kb/s
  36. Channel(s)                               : 6 channels
  37. Channel layout                           : C L R Ls Rs LFE
  38. Sampling rate                            : 48.0 kHz
  39. Frame rate                               : 93.750 FPS (512 SPF)
  40. Bit depth                                : 24 bits
  41. Compression mode                         : Lossy
  42. Delay relative to video                  : 11 ms
  43. Stream size                              : 1.17 GiB (12%)
  44. Language                                 : English
  45. Default                                  : Yes
  46. Forced                                   : No

  47. Text
  48. ID                                       : 3
  49. Format                                   : UTF-8
  50. Codec ID                                 : S_TEXT/UTF8
  51. Codec ID/Info                            : UTF-8 Plain Text
  52. Language                                 : English
  53. Default                                  : No
  54. Forced                                   : No
复制代码








                                       
                                       

                                       
                                       
                                       




回复

使用道具 举报

懒得打字嘛,点击右侧快捷回复 【右侧内容,后台自定义】
您需要登录后才可以回帖 登录 | 立即加入

本版积分规则

Archiver|小黑屋| 蓝光电影网 |网站地图

Copyright © 2021 Comsenz Inc. Powered by 蓝光电影网

蓝光电影网

本站内容由用户自主分享和转载自互联网,转载目的在于传递更多信息,并不代表本网赞同其观点和对其真实性负责。

如有侵权、违反国家法律政策行为,请联系我们,我们会第一时间及时清除和处理!

举报反馈邮箱:[email protected]

快速回复 返回顶部 返回列表