找回密码

蓝光电影网

查看: 15|回复: 0

[剧情] 爱的成人式 Initiation.Love.2015.JAPANESE.1080p.BluRay.x264.DTS-WiKi 12.25GB

[复制链接]
蓝光币
623
发表于 2020-11-6 11:12:14 | 显示全部楼层 |阅读模式


◎译  名 爱的成人式/Initiation Love
◎片  名 イニシエーション?ラブ
◎年  代 2015
◎产  地 日本
◎类  别 剧情 / 恋爱 / 悬疑
◎语  言 日语
◎上映日期 2015-05-23(日本)
◎IMDb评分  7.1/10 from 861 users
◎IMDb链接  https://www.imdb.com/title/tt4119590/
◎豆瓣评分 7.6/10 from 33888 users
◎豆瓣链接 https://movie.douban.com/subject/26140405/
◎片  长 110分钟
◎导  演 堤幸彦 Yukihiko Tsutsumi
◎编  剧 乾胡桃 Inui Kurumi
◎主  演 松田翔太 Shota Matsuda
       前田敦子 Atsuko Maeda
       木村文乃 Fumino Kimura
       三浦贵大 Takahiro Miura
       前野朋哉 Tomoya Maeno
       森冈龙 Ry? Morioka
       矢野圣人 Masato Yano
       吉谷彩子 Ayako Yoshitani
       松浦雅 Miyabi Matsuura
       大西礼芳 Ayaka Onishi
       佐藤玲 Ryo Sato
       山西惇 Atsushi Yamanishi
       木梨宪武 Noritake Kinashi
       手塚理美 Satomi Tezuka
       片冈鹤太郎 Tsurutar? Kataoka
       藤原季节 Kisetsu Fujiwara
       森田甘路 Kanro Morita
       指出瑞贵 Sashide mizuki
◎标  签 日本 | 恋爱 | 悬疑 | 剧情 | 2015 | 推理 | 青春 | 小说改编
◎简  介


  A面:在某次联谊会上,身材瘦削且其貌不扬的大门生铃木夕树相逢了美丽女孩趼子(前田敦子 饰)。他帮对方得救,对方似乎也对他有了好感。在尔后的日子里,两人碰头的次数增加,在趼子的激励和倡议下,铃木尝试着改变自己的外型,力图成为女孩心目中理想的男性。那一年的圣诞节,他们的恋爱走向极点。B面:大学结业后,铃木进入职场,并依照公司的放置前往东京停止进修,是以不能反面趼子履历远间隔的恋爱。开初一切还好,但随着时候的流逝,两人之间逐步出现隔膜,而远在东京的铃木又相逢了美丽的女同事美弥子(木村文乃 饰),恋爱的天平进一步倾斜……
  
  本片按照乾胡桃的同名原作改编。
◎获奖情况
  第2届豆瓣电影年度榜单 ?(2015)
  评分最高的日本电影(提名)
  1. Video
  2. ID                                       : 1
  3. Format                                   : AVC
  4. Format/Info                              : Advanced Video Codec
  5. Format profile                           : [email protected]
  6. Format settings, CABAC                   : Yes
  7. Format settings, ReFrames                : 5 frames
  8. Codec ID                                 : V_MPEG4/ISO/AVC
  9. Duration                                 : 1h 49mn
  10. Bit rate                                 : 14.5 Mbps
  11. Width                                    : 1 920 pixels
  12. Height                                   : 802 pixels
  13. Display aspect ratio                     : 2.40:1
  14. Frame rate mode                          : Constant
  15. Frame rate                               : 23.976 fps
  16. Color space                              : YUV
  17. Chroma subsampling                       : 4:2:0
  18. Bit depth                                : 8 bits
  19. Scan type                                : Progressive
  20. Bits/(Pixel*Frame)                       : 0.393
  21. Stream size                              : 10.9 GiB (89%)
  22. Writing library                          : x264 core 142 r2431+42 c69a006 tMod [[email protected] X86_64]
  23. Encoding settings                        : cabac=1 / ref=5 / deblock=1:-3:-3 / analyse=0x3:0x133 / me=umh / subme=11 / psy=1 / fade_compensate=0.00 / psy_rd=1.05:0.05 / mixed_ref=1 / me_range=64 / chroma_me=1 / trellis=2 / 8x8dct=1 / cqm=0 / deadzone=21,11 / fast_pskip=0 / chroma_qp_offset=-3 / threads=12 / lookahead_threads=3 / sliced_threads=0 / nr=0 / decimate=0 / interlaced=0 / bluray_compat=0 / constrained_intra=0 / fgo=0 / bframes=10 / b_pyramid=2 / b_adapt=2 / b_bias=0 / direct=3 / weightb=1 / open_gop=0 / weightp=2 / keyint=250 / keyint_min=23 / scenecut=40 / intra_refresh=0 / rc_lookahead=120 / rc=2pass / mbtree=1 / bitrate=14500 / ratetol=1.0 / qcomp=0.72 / qpmin=0:0:0 / qpmax=69:69:69 / qpstep=4 / cplxblur=20.0 / qblur=0.5 / vbv_maxrate=50000 / vbv_bufsize=50000 / nal_hrd=none / filler=0 / ip_ratio=1.40 / aq=1:0.75 / aq-sensitivity=10.00 / aq-factor=1.00:1.00:1.00 / aq2=0 / aq3=0
  24. Language                                 : Japanese
  25. Default                                  : Yes
  26. Forced                                   : No
  27. Color range                              : Limited
  28. Matrix coefficients                      : BT.709
  29. Audio
  30. ID                                       : 2
  31. Format                                   : DTS
  32. Format/Info                              : Digital Theater Systems
  33. Mode                                     : 16
  34. Format settings, Endianness              : Big
  35. Codec ID                                 : A_DTS
  36. Duration                                 : 1h 49mn
  37. Bit rate mode                            : Constant
  38. Bit rate                                 : 1 509 Kbps
  39. Channel(s)                               : 6 channels
  40. Channel positions                        : Front: L C R, Side: L R, LFE
  41. Sampling rate                            : 48.0 KHz
  42. Bit depth                                : 24 bits
  43. Compression mode                         : Lossy
  44. Stream size                              : 1.15 GiB (9%)
  45. Language                                 : Japanese
  46. Default                                  : Yes
  47. Forced                                   : No
  48. Text #1
  49. ID                                       : 3
  50. Format                                   : ASS
  51. Codec ID                                 : S_TEXT/ASS
  52. Codec ID/Info                            : Advanced Sub Station Alpha
  53. Compression mode                         : Lossless
  54. Title                                    : CHS
  55. Language                                 : Chinese
  56. Default                                  : No
  57. Forced                                   : No
  58. Text #2
  59. ID                                       : 4
  60. Format                                   : ASS
  61. Codec ID                                 : S_TEXT/ASS
  62. Codec ID/Info                            : Advanced Sub Station Alpha
  63. Compression mode                         : Lossless
  64. Title                                    : CHT
  65. Language                                 : Chinese
  66. Default                                  : No
  67. Forced                                   : No
  68. Menu
  69. 00:00:00.000                             : en:00:00:00.000
  70. 00:10:50.024                             : en:00:10:50.024
  71. 00:22:21.840                             : en:00:22:21.840
  72. 00:36:42.700                             : en:00:36:42.700
  73. 00:50:08.797                             : en:00:50:08.797
  74. 01:04:18.396                             : en:01:04:18.396
  75. 01:16:26.874                             : en:01:16:26.874
  76. 01:26:33.480                             : en:01:26:33.480
  77. 01:35:26.804                             : en:01:35:26.804
  78. 01:45:33.077                             : en:01:45:33.077
复制代码








                                       
                                       

                                       
                                       
                                       




回复

使用道具 举报

懒得打字嘛,点击右侧快捷回复 【右侧内容,后台自定义】
您需要登录后才可以回帖 登录 | 立即加入

本版积分规则

Archiver|小黑屋| 蓝光电影网 |网站地图

Copyright © 2021 Comsenz Inc. Powered by 蓝光电影网

蓝光电影网

本站内容由用户自主分享和转载自互联网,转载目的在于传递更多信息,并不代表本网赞同其观点和对其真实性负责。

如有侵权、违反国家法律政策行为,请联系我们,我们会第一时间及时清除和处理!

举报反馈邮箱:[email protected]

快速回复 返回顶部 返回列表