找回密码

蓝光电影网

查看: 11|回复: 0

[剧情] 末路鸳鸯/新娘向后跑 Heavens.Burning.1997.1080p.BluRay.x264-GUACAMOLE 13.55GB

[复制链接]
蓝光币
515
发表于 2020-11-6 09:02:36 | 显示全部楼层 |阅读模式


◎译  名 末路鸳鸯/新娘向后跑
◎片  名 Heaven's Burning
◎年  代 1997
◎产  地 澳大利亚
◎类  别 剧情 / 行动 / 恋爱 / 惊悚 / 犯罪
◎语  言 日语,英语
◎上映日期 1997-09-04
◎IMDb评分  5.7/10 from 1820 users
◎IMDb链接  https://www.imdb.com/title/tt0119272/
◎豆瓣评分 6.9/10 from 81 users
◎豆瓣链接 https://movie.douban.com/subject/1302723/
◎片  长 96 分钟
◎导  演 克雷格·拉希夫 Craig Lahiff
◎编  剧 路易·诺维拉 Louis Nowra
◎主  演 帕特里克·杜金 Patrick Duggin
       Garry Waddell
       Ian Turpie
       Julie Sobotta
       罗素·克劳 Russell Crowe
       诺曼·卡耶 Norman Kaye
       Don Barker
       雷特·盖尔斯  Rhett Giles
       雷·巴雷特 Ray Barrett
       Salvatore Coco
       Kate Fitzpatrick
       Colin Hay
       Katherine Halliday
       Anthony Phelan
       工藤夕贵 Youki Kudoh
◎标  签 RussellCrowe | 澳大利亚 | 恋爱 | 剧情 | 犯罪 | 行动 | 卢塞尔克劳 | Thriller
◎简  介


  日本新娘Midori为了回避新婚之夜、然后与情人私奔,自导自演了一出绑架案,可是没想到,计划却有了出乎料想的改变。首先,她的情人没有在约定的时候出现,不幸的Midori只好单独一人在澳洲悉尼游荡。当她进入当地银行兑现零钱时,巧遇一宗由阿富汗难民所主导的抢劫案。在一阵紊乱中,抢案失利,劫匪挟持Midori为人质。当暴徒正筹算杀她灭口时,他们所招聘的司机Colin竟出头救了Midori。因而,两人携手展开一场横越澳洲的亡命之旅。
  
  可是,日本与澳洲的警方及Midori愤慨疯狂的丈夫都在后紧追不舍。这一对亡命鸳鸯能否能逃出这条不归路?
  1. Video
  2. ID                                       : 1
  3. Format                                   : AVC
  4. Format/Info                              : Advanced Video Codec
  5. Format profile                           : [email protected]
  6. Format settings                          : CABAC / 5 Ref Frames
  7. Format settings, CABAC                   : Yes
  8. Format settings, Reference frames        : 5 frames
  9. Codec ID                                 : V_MPEG4/ISO/AVC
  10. Duration                                 : 1 h 39 min
  11. Bit rate                                 : 17.4 Mb/s
  12. Width                                    : 1 920 pixels
  13. Height                                   : 808 pixels
  14. Display aspect ratio                     : 2.40:1
  15. Frame rate mode                          : Constant
  16. Frame rate                               : 24.000 FPS
  17. Color space                              : YUV
  18. Chroma subsampling                       : 4:2:0
  19. Bit depth                                : 8 bits
  20. Scan type                                : Progressive
  21. Bits/(Pixel*Frame)                       : 0.467
  22. Stream size                              : 12.1 GiB (89%)
  23. Writing library                          : x264 core 161 r3027 4121277
  24. Encoding settings                        : cabac=1 / ref=5 / deblock=1:-3:-3 / analyse=0x3:0x133 / me=umh / subme=9 / psy=1 / psy_rd=1.00:0.00 / mixed_ref=1 / me_range=16 / chroma_me=1 / trellis=2 / 8x8dct=1 / cqm=0 / deadzone=21,11 / fast_pskip=0 / chroma_qp_offset=-2 / threads=24 / lookahead_threads=2 / sliced_threads=0 / nr=0 / decimate=1 / interlaced=0 / bluray_compat=0 / constrained_intra=0 / bframes=3 / b_pyramid=2 / b_adapt=2 / b_bias=0 / direct=3 / weightb=1 / open_gop=0 / weightp=2 / keyint=250 / keyint_min=23 / scenecut=40 / intra_refresh=0 / rc_lookahead=60 / rc=crf / mbtree=1 / crf=17.5 / qcomp=0.60 / qpmin=0 / qpmax=69 / qpstep=4 / ip_ratio=1.40 / aq=3:0.60
  25. Default                                  : Yes
  26. Forced                                   : No
  27. Color range                              : Limited
  28. Matrix coefficients                      : BT.709

  29. Audio #1
  30. ID                                       : 2
  31. Format                                   : DTS XLL
  32. Format/Info                              : Digital Theater Systems
  33. Commercial name                          : DTS-HD Master Audio
  34. Codec ID                                 : A_DTS
  35. Duration                                 : 1 h 39 min
  36. Bit rate mode                            : Variable
  37. Bit rate                                 : 2 004 kb/s
  38. Channel(s)                               : 6 channels
  39. Channel layout                           : C L R Ls Rs LFE
  40. Sampling rate                            : 48.0 kHz
  41. Frame rate                               : 93.750 FPS (512 SPF)
  42. Bit depth                                : 16 bits
  43. Compression mode                         : Lossless
  44. Stream size                              : 1.39 GiB (10%)
  45. Language                                 : English
  46. Default                                  : Yes
  47. Forced                                   : No

  48. Audio #2
  49. ID                                       : 3
  50. Format                                   : AAC LC
  51. Format/Info                              : Advanced Audio Codec Low Complexity
  52. Codec ID                                 : A_AAC-2
  53. Duration                                 : 1 h 39 min
  54. Bit rate                                 : 144 kb/s
  55. Channel(s)                               : 2 channels
  56. Channel layout                           : L R
  57. Sampling rate                            : 48.0 kHz
  58. Frame rate                               : 46.875 FPS (1024 SPF)
  59. Compression mode                         : Lossy
  60. Stream size                              : 102 MiB (1%)
  61. Language                                 : English
  62. Default                                  : No
  63. Forced                                   : No

  64. Text #1
  65. ID                                       : 4
  66. Format                                   : PGS
  67. Muxing mode                              : zlib
  68. Codec ID                                 : S_HDMV/PGS
  69. Codec ID/Info                            : Picture based subtitle format used on BDs/HD-DVDs
  70. Duration                                 : 1 h 32 min
  71. Bit rate                                 : 12.4 kb/s
  72. Count of elements                        : 1320
  73. Stream size                              : 8.21 MiB (0%)
  74. Title                                    : SDH
  75. Language                                 : English
  76. Default                                  : No
  77. Forced                                   : No

  78. Text #2
  79. ID                                       : 5
  80. Format                                   : PGS
  81. Muxing mode                              : zlib
  82. Codec ID                                 : S_HDMV/PGS
  83. Codec ID/Info                            : Picture based subtitle format used on BDs/HD-DVDs
  84. Duration                                 : 1 h 30 min
  85. Bit rate                                 : 17.0 kb/s
  86. Count of elements                        : 1420
  87. Stream size                              : 11.0 MiB (0%)
  88. Title                                    : SDH
  89. Language                                 : German
  90. Default                                  : No
  91. Forced                                   : No

  92. Menu
  93. 00:00:00.000                             : en:00:00:00.000
  94. 00:09:54.167                             : en:00:09:54.167
  95. 00:17:27.375                             : en:00:17:27.375
  96. 00:26:15.375                             : en:00:26:15.375
  97. 00:37:03.708                             : en:00:37:03.708
  98. 00:48:34.375                             : en:00:48:34.375
  99. 01:00:42.292                             : en:01:00:42.292
  100. 01:10:16.333                             : en:01:10:16.333
  101. 01:17:09.000                             : en:01:17:09.000
  102. 01:26:37.167                             : en:01:26:37.167
  103. 01:30:14.167                             : en:01:30:14.167
  104. 01:36:35.167                             : en:01:36:35.167
复制代码




                                       
                                       

                                       
                                       
                                       




回复

使用道具 举报

懒得打字嘛,点击右侧快捷回复 【右侧内容,后台自定义】
您需要登录后才可以回帖 登录 | 立即加入

本版积分规则

Archiver|小黑屋| 蓝光电影网 |网站地图

Copyright © 2021 Comsenz Inc. Powered by 蓝光电影网

蓝光电影网

本站内容由用户自主分享和转载自互联网,转载目的在于传递更多信息,并不代表本网赞同其观点和对其真实性负责。

如有侵权、违反国家法律政策行为,请联系我们,我们会第一时间及时清除和处理!

举报反馈邮箱:[email protected]

快速回复 返回顶部 返回列表