找回密码

蓝光电影网

查看: 8|回复: 0

[剧情] 没有柏林的秋 An.Autumn.Without.Berlin.2015.SPANISH.1080p.BluRay.x264.DTS-HDS 9.24GB

[复制链接]
蓝光币
511
发表于 2020-11-5 23:12:24 | 显示全部楼层 |阅读模式


◎译  名 没有柏林的秋/An Autumn Without Berlin
◎片  名 Un oto?o sin Berlín
◎年  代 2015
◎产  地 西班牙
◎类  别 剧情
◎语  言 西班牙语
◎上映日期 2015-11-13(西班牙)
◎IMDb评分  5.9/10 from 294 users
◎IMDb链接  https://www.imdb.com/title/tt3900580/
◎豆瓣评分 /10 from 0 users
◎豆瓣链接 https://movie.douban.com/subject/26325256/
◎片  长 98分钟
◎导  演 罗拉·伊萨吉雷 Lara Izagirre
◎编  剧 罗拉·伊萨吉雷 Lara Izagirre
◎主  演 伊琳娜·埃斯柯拉 Irene Escolar
       塔马·诺瓦斯 Tamar Novas
       李尔·奎萨达 Lier Quesada
       拉蒙·巴雷阿 Ramón Barea
       马里亚诺·埃斯图迪略 Mariano Estudillo
       玛利亚·迪亚兹 María Isabel Díaz
       帕特里夏·洛佩斯·阿奈斯 Patricia López Arnaiz
       Amaia Lizarralde
◎标  签 西班牙 | 恋爱 | 2015 | 剧情 | 2010s | 电影 | 欧美电影 | doxtv
◎简  介


  June (Irene Escolar) es una chica de 28 a?os, de aspecto frágil, pero que posee gran instinto de supervivencia. Es una joven impulsiva y so?adora que acarrea un pasado doloroso y que enfrenta la vida con cierta inocencia y espíritu de lucha. Por su parte Diego (Tamar Novas) es un escritor joven, poco social y con una sensibilidad singular. Vive al margen del mundo y rara vez muestra su cara amable. Cuando June regresa a su localidad de origen tras vivir fuera un tiempo en busca de mejores oportunidades que las que le brindaba su tierra natal, ambos vuelven a encontrarse y se enfrentan juntos al desencanto y la falta de expectativas intentando reinventar su peculiar historia de amor.
◎获奖情况
  第30届西班牙戈雅奖 ?(2016)
  最好新人女演员 伊琳娜·埃斯柯拉
  1. Video
  2. ID                                       : 1
  3. Format                                   : AVC
  4. Format/Info                              : Advanced Video Codec
  5. Format profile                           : [email protected]
  6. Format settings                          : CABAC / 4 Ref Frames
  7. Format settings, CABAC                   : Yes
  8. Format settings, Reference frames        : 4 frames
  9. Codec ID                                 : V_MPEG4/ISO/AVC
  10. Duration                                 : 1 h 39 min
  11. Bit rate                                 : 11.8 Mb/s
  12. Width                                    : 1 440 pixels
  13. Height                                   : 1 080 pixels
  14. Display aspect ratio                     : 4:3
  15. Frame rate mode                          : Constant
  16. Frame rate                               : 24.000 FPS
  17. Color space                              : YUV
  18. Chroma subsampling                       : 4:2:0
  19. Bit depth                                : 8 bits
  20. Scan type                                : Progressive
  21. Bits/(Pixel*Frame)                       : 0.316
  22. Stream size                              : 8.18 GiB (89%)
  23. Writing library                          : x264 core 148 r2699+6+41 29a38aa Yuuki [[email protected]:2:0 X86_64][GCC 5.3.0]
  24. Encoding settings                        : cabac=1 / ref=4 / deblock=1:-3:-3 / analyse=0x3:0x113 / me=umh / subme=11 / psy=1 / fade_compensate=0.00 / psy_rd=1.00:0.05 / mixed_ref=1 / me_range=32 / chroma_me=1 / trellis=2 / 8x8dct=1 / cqm=0 / deadzone=21,11 / fast_pskip=0 / chroma_qp_offset=-2 / threads=36 / lookahead_threads=6 / sliced_threads=0 / nr=0 / decimate=1 / interlaced=0 / bluray_compat=0 / constrained_intra=0 / fgo=0 / bframes=8 / b_pyramid=2 / b_adapt=2 / b_bias=0 / direct=3 / weightb=1 / open_gop=0 / weightp=2 / keyint=250 / keyint_min=24 / scenecut=40 / intra_refresh=0 / rc_lookahead=40 / rc=crf / mbtree=0 / crf=16.6000 / qcomp=0.60 / qpmin=0:0:0 / qpmax=69:69:69 / qpstep=4 / vbv_maxrate=50000 / vbv_bufsize=40000 / crf_max=0.0 / nal_hrd=none / filler=0 / ip_ratio=1.40 / pb_ratio=1.30 / aq=3:0.90
  25. Default                                  : Yes
  26. Forced                                   : No
  27. Audio
  28. ID                                       : 2
  29. Format                                   : DTS
  30. Format/Info                              : Digital Theater Systems
  31. Codec ID                                 : A_DTS
  32. Duration                                 : 1 h 39 min
  33. Bit rate mode                            : Constant
  34. Bit rate                                 : 1 509 kb/s
  35. Channel(s)                               : 6 channels
  36. Channel layout                           : C L R Ls Rs LFE
  37. Sampling rate                            : 48.0 kHz
  38. Frame rate                               : 93.750 FPS (512 SPF)
  39. Bit depth                                : 24 bits
  40. Compression mode                         : Lossy
  41. Stream size                              : 1.05 GiB (11%)
  42. Title                                    : Spanish
  43. Language                                 : Spanish
  44. Default                                  : Yes
  45. Forced                                   : No
  46. Text #1
  47. ID                                       : 3
  48. Format                                   : UTF-8
  49. Codec ID                                 : S_TEXT/UTF8
  50. Codec ID/Info                            : UTF-8 Plain Text
  51. Duration                                 : 1 h 27 min
  52. Bit rate                                 : 27 b/s
  53. Count of elements                        : 743
  54. Stream size                              : 17.7 KiB (0%)
  55. Title                                    : SRT
  56. Language                                 : English
  57. Default                                  : No
  58. Forced                                   : No
  59. Text #2
  60. ID                                       : 4
  61. Format                                   : PGS
  62. Muxing mode                              : zlib
  63. Codec ID                                 : S_HDMV/PGS
  64. Codec ID/Info                            : Picture based subtitle format used on BDs/HD-DVDs
  65. Duration                                 : 1 h 27 min
  66. Bit rate                                 : 19.3 kb/s
  67. Count of elements                        : 1494
  68. Stream size                              : 12.1 MiB (0%)
  69. Title                                    : ENG
  70. Language                                 : English
  71. Default                                  : Yes
  72. Forced                                   : No
  73. Menu
  74. 00:00:00.000                             : en:00:00:00.000
  75. 00:08:57.416                             : en:00:08:57.416
  76. 00:16:52.250                             : en:00:16:52.250
  77. 00:25:04.208                             : en:00:25:04.208
  78. 00:34:45.958                             : en:00:34:45.958
  79. 00:42:12.125                             : en:00:42:12.125
  80. 00:49:05.458                             : en:00:49:05.458
  81. 00:56:54.791                             : en:00:56:54.791
  82. 01:05:04.666                             : en:01:05:04.666
  83. 01:12:41.958                             : en:01:12:41.958
  84. 01:19:14.541                             : en:01:19:14.541
  85. 01:28:05.333                             : en:01:28:05.333
复制代码






                                       
                                       

                                       
                                       
                                       




回复

使用道具 举报

懒得打字嘛,点击右侧快捷回复 【右侧内容,后台自定义】
您需要登录后才可以回帖 登录 | 立即加入

本版积分规则

Archiver|小黑屋| 蓝光电影网 |网站地图

Copyright © 2021 Comsenz Inc. Powered by 蓝光电影网

蓝光电影网

本站内容由用户自主分享和转载自互联网,转载目的在于传递更多信息,并不代表本网赞同其观点和对其真实性负责。

如有侵权、违反国家法律政策行为,请联系我们,我们会第一时间及时清除和处理!

举报反馈邮箱:[email protected]

快速回复 返回顶部 返回列表