找回密码

蓝光电影网

查看: 15|回复: 0

[剧情] 巢穴/鸟巢 The.Nest.1980.SPANISH.1080p.BluRay.x264-HANDJOB 8.76GB

[复制链接]
蓝光币
515
发表于 2020-11-5 23:00:14 | 显示全部楼层 |阅读模式


◎译  名 巢穴/鸟巢
◎片  名 El Nido
◎年  代 1980
◎产  地 西班牙,阿根廷
◎类  别 剧情
◎语  言 英语,西班牙语
◎上映日期 1980-09-18
◎IMDb评分  7.2/10 from 439 users
◎IMDb链接  https://www.imdb.com/title/tt0079625/
◎豆瓣评分 /10 from 0 users
◎豆瓣链接 https://movie.douban.com/subject/2079815/
◎片  长 97 分钟
◎导  演 海梅·德阿米尼安 Jaime de Armi?án
◎编  剧 海梅·德阿米尼安 Jaime de Armi?án
◎主  演 安娜·托伦特 Ana Torrent
       赫克多·艾戴里欧 Héctor Alterio
       玛丽亚·路易莎·庞特 María Luisa Ponte
       Luis Politti
       Ovidi Montllor
       帕罗·巴 Amparo Baró
       Mercedes Alonso
       帕特里夏·阿德里亚尼 Patricia Adriani
       阿古斯丁·冈萨雷斯 Agustín González
◎标  签 西班牙 | 西班牙电影 | AnaTorrent | 儿童 | 恋爱 | 已存 | 已下 | 剧情
◎简  介


  《:这个大叔不太冷:巢穴El Nido》被喻为可以媲美原版《这个杀手不太冷》的西班牙版
  
  亚历杭德罗(Héctor Alterio)是一位六十多岁的渔夫。他是很是厌世,独居在镇郊一所屋子里。女管家及其丈夫顾问他的生活。他感应孤独,
  
  天天除了欣赏海顿的音乐就是在棋盘边消磨时光。有一天,他熟悉了一位叫戈伊塔(Ana Torren)t的13岁小姑娘。他们之间发生了纯真的恋爱。女孩子领会他心里的孤独,
  
  她在他身上寻觅到了她所空想的天下。戈伊塔经过那萌生出的恋爱去叫醒这个落魄的人物,给他的生活带来了朝气。可是他们的恋爱却是不受世俗接管的……
  
  同年Ana TorrentMontréal 获得World Film Festival 最好女演员奖.
◎获奖情况
  第53届奥斯卡金像奖 ?(1981)
  最好外语片(提名)
  1. Video
  2. ID                                       : 1
  3. Format                                   : AVC
  4. Format/Info                              : Advanced Video Codec
  5. Format profile                           : [email protected]
  6. Format settings                          : CABAC / 4 Ref Frames
  7. Format settings, CABAC                   : Yes
  8. Format settings, Reference frames        : 4 frames
  9. Codec ID                                 : V_MPEG4/ISO/AVC
  10. Duration                                 : 1 h 48 min
  11. Bit rate                                 : 10.9 Mb/s
  12. Width                                    : 1 800 pixels
  13. Height                                   : 1 072 pixels
  14. Display aspect ratio                     : 5:3
  15. Frame rate mode                          : Constant
  16. Frame rate                               : 24.000 FPS
  17. Color space                              : YUV
  18. Chroma subsampling                       : 4:2:0
  19. Bit depth                                : 8 bits
  20. Scan type                                : Progressive
  21. Bits/(Pixel*Frame)                       : 0.236
  22. Stream size                              : 8.28 GiB (94%)
  23. Writing library                          : x264 core 148
  24. Encoding settings                        : cabac=1 / ref=4 / deblock=1:-3:-3 / analyse=0x3:0x133 / me=umh / subme=10 / psy=1 / psy_rd=1.00:0.00 / mixed_ref=1 / me_range=32 / chroma_me=1 / trellis=2 / 8x8dct=1 / cqm=0 / deadzone=21,11 / fast_pskip=0 / chroma_qp_offset=-2 / threads=12 / lookahead_threads=3 / sliced_threads=0 / nr=0 / decimate=0 / interlaced=0 / bluray_compat=0 / constrained_intra=0 / bframes=16 / b_pyramid=2 / b_adapt=2 / b_bias=0 / direct=3 / weightb=1 / open_gop=0 / weightp=2 / keyint=240 / keyint_min=24 / scenecut=40 / intra_refresh=0 / rc_lookahead=60 / rc=crf / mbtree=0 / crf=19.5 / qcomp=0.60 / qpmin=0 / qpmax=69 / qpstep=4 / vbv_maxrate=62500 / vbv_bufsize=78125 / crf_max=0.0 / nal_hrd=none / filler=0 / ip_ratio=1.40 / pb_ratio=1.30 / aq=2:1.00
  25. Default                                  : Yes
  26. Forced                                   : No
  27. Color range                              : Limited
  28. Color primaries                          : BT.709
  29. Transfer characteristics                 : BT.709
  30. Matrix coefficients                      : BT.709
  31. Audio
  32. ID                                       : 2
  33. Format                                   : AC-3
  34. Format/Info                              : Audio Coding 3
  35. Commercial name                          : Dolby Digital
  36. Codec ID                                 : A_AC3
  37. Duration                                 : 1 h 48 min
  38. Bit rate mode                            : Constant
  39. Bit rate                                 : 640 kb/s
  40. Channel(s)                               : 6 channels
  41. Channel layout                           : L R C LFE Ls Rs
  42. Sampling rate                            : 48.0 kHz
  43. Frame rate                               : 31.250 FPS (1536 SPF)
  44. Compression mode                         : Lossy
  45. Stream size                              : 496 MiB (6%)
  46. Language                                 : Spanish
  47. Service kind                             : Complete Main
  48. Default                                  : Yes
  49. Forced                                   : No
  50. Text
  51. ID                                       : 3
  52. Format                                   : UTF-8
  53. Codec ID                                 : S_TEXT/UTF8
  54. Codec ID/Info                            : UTF-8 Plain Text
  55. Duration                                 : 1 h 45 min
  56. Bit rate                                 : 41 b/s
  57. Count of elements                        : 869
  58. Stream size                              : 32.3 KiB (0%)
  59. Language                                 : English
  60. Default                                  : Yes
  61. Forced                                   : No
  62. Menu
  63. 00:00:00.000                             : en:Chapter 01
  64. 00:09:51.625                             : en:Chapter 02
  65. 00:20:41.250                             : en:Chapter 03
  66. 00:28:05.500                             : en:Chapter 04
  67. 00:36:04.500                             : en:Chapter 05
  68. 00:47:02.125                             : en:Chapter 06
  69. 00:54:54.375                             : en:Chapter 07
  70. 01:06:44.500                             : en:Chapter 08
  71. 01:14:24.417                             : en:Chapter 09
  72. 01:21:05.625                             : en:Chapter 10
  73. 01:29:55.167                             : en:Chapter 11
  74. 01:39:02.042                             : en:Chapter 12
  75. 01:47:34.000                             : en:Chapter 13
复制代码





                                       
                                       

                                       
                                       
                                       




回复

使用道具 举报

懒得打字嘛,点击右侧快捷回复 【右侧内容,后台自定义】
您需要登录后才可以回帖 登录 | 立即加入

本版积分规则

Archiver|小黑屋| 蓝光电影网 |网站地图

Copyright © 2021 Comsenz Inc. Powered by 蓝光电影网

蓝光电影网

本站内容由用户自主分享和转载自互联网,转载目的在于传递更多信息,并不代表本网赞同其观点和对其真实性负责。

如有侵权、违反国家法律政策行为,请联系我们,我们会第一时间及时清除和处理!

举报反馈邮箱:[email protected]

快速回复 返回顶部 返回列表