找回密码

蓝光电影网

查看: 9|回复: 0

[剧情] 等待野蛮人/野蛮真相 Waiting.for.the.Barbarians.2019.1080p.BluRay.x264-SURCODE 10.55GB

[复制链接]
蓝光币
515
发表于 2020-11-5 15:37:47 | 显示全部楼层 |阅读模式


◎译  名 期待野生番/蛮横真相(台)
◎片  名 Waiting for the Barbarians
◎年  代 2019
◎产  地 意大利,美国
◎类  别 剧情
◎语  言 英语
◎上映日期 2019-09-06(威尼斯电影节) / 2020-08-07(美国)
◎IMDb评分  5.8/10 from 4599 users
◎IMDb链接  https://www.imdb.com/title/tt6149154/
◎豆瓣评分 6.4/10 from 1012 users
◎豆瓣链接 https://movie.douban.com/subject/27082866/
◎片  长 112分钟
◎导  演 西罗·格拉 Ciro Guerra
◎编  剧 J·M·库切 J.M. Coetzee
◎主  演 马克·里朗斯 Mark Rylance
       约翰尼·德普 Johnny Depp
       罗伯特·帕丁森 Robert Pattinson
       嘎娜·巴亚尔赛汗 Gana Bayarsaikhan
       格列塔·斯卡奇 Greta Scacchi
       大卫·丹席克 David Dencik
       萨姆·里德 Sam Reid
       哈利·米尔林 Harry Melling
       比尔·米尔纳 Bill Milner
       Isabella Nefar
       大卫·摩尔斯特 David Moorst
       约瑟夫·朗 Joseph Long
       威尔·柯班 Wil Coban
       法基·埃尔基尔 Faical Elkihel
       保罗·巴泽利 Paul Bazely
◎标  签 小说改编 | 美国 | 剧情 | 约翰尼·德普 | 2019 | JohnnyDepp | 美国电影 | MarkRylance
◎简  介


  按照约翰·马克斯韦尔·库切的同名小说改编,这位诺贝尔文学奖得主将自己的作品改编为剧本。故事的仆人公是一位大英帝国外洋殖民地的法官,他起头思疑自己对于帝国的虔诚。
◎获奖情况
  第76届威尼斯电影节 ?(2019)
  主比赛单元金狮奖(提名) 西罗·格拉
  1. Video
  2. ID                                       : 1
  3. Format                                   : AVC
  4. Format/Info                              : Advanced Video Codec
  5. Format profile                           : [email protected]
  6. Format settings                          : CABAC / 5 Ref Frames
  7. Format settings, CABAC                   : Yes
  8. Format settings, Reference frames        : 5 frames
  9. Codec ID                                 : V_MPEG4/ISO/AVC
  10. Duration                                 : 1 h 53 min
  11. Bit rate                                 : 11.2 Mb/s
  12. Width                                    : 1 920 pixels
  13. Height                                   : 802 pixels
  14. Display aspect ratio                     : 2.40:1
  15. Frame rate mode                          : Constant
  16. Frame rate                               : 23.976 (24000/1001/189150) FPS
  17. Color space                              : YUV
  18. Chroma subsampling                       : 4:2:0
  19. Bit depth                                : 8 bits
  20. Scan type                                : Progressive
  21. Bits/(Pixel*Frame)                       : 0.304
  22. Stream size                              : 8.92 GiB (85%)
  23. Writing library                          : x264 core 161 r3018 db0d417
  24. Encoding settings                        : cabac=1 / ref=5 / deblock=1:-3:-3 / analyse=0x3:0x133 / me=umh / subme=9 / psy=1 / psy_rd=1.00:0.00 / mixed_ref=1 / me_range=16 / chroma_me=1 / trellis=2 / 8x8dct=1 / cqm=0 / deadzone=21,11 / fast_pskip=0 / chroma_qp_offset=-2 / threads=25 / lookahead_threads=2 / sliced_threads=0 / nr=0 / decimate=1 / interlaced=0 / bluray_compat=0 / constrained_intra=0 / bframes=3 / b_pyramid=2 / b_adapt=2 / b_bias=0 / direct=3 / weightb=1 / open_gop=0 / weightp=2 / keyint=250 / keyint_min=23 / scenecut=40 / intra_refresh=0 / rc_lookahead=60 / rc=crf / mbtree=1 / crf=17.0 / qcomp=0.60 / qpmin=0 / qpmax=69 / qpstep=4 / ip_ratio=1.40 / aq=1:1.00
  25. Language                                 : English
  26. Default                                  : Yes
  27. Forced                                   : No

  28. Audio
  29. ID                                       : 2
  30. Format                                   : DTS XBR
  31. Format/Info                              : Digital Theater Systems
  32. Commercial name                          : DTS-HD High Resolution Audio
  33. Codec ID                                 : A_DTS
  34. Duration                                 : 1 h 53 min
  35. Bit rate mode                            : Constant
  36. Bit rate                                 : 2 046 kb/s
  37. Channel(s)                               : 6 channels
  38. Channel layout                           : C L R Ls Rs LFE
  39. Sampling rate                            : 48.0 kHz
  40. Frame rate                               : 93.750 FPS (512 SPF)
  41. Bit depth                                : 24 bits
  42. Compression mode                         : Lossy
  43. Stream size                              : 1.63 GiB (15%)
  44. Default                                  : Yes
  45. Forced                                   : No

  46. Text #1
  47. ID                                       : 3
  48. Format                                   : UTF-8
  49. Codec ID                                 : S_TEXT/UTF8
  50. Codec ID/Info                            : UTF-8 Plain Text
  51. Duration                                 : 1 h 2 min
  52. Bit rate                                 : 1 b/s
  53. Count of elements                        : 28
  54. Stream size                              : 754 Bytes (0%)
  55. Title                                    : forced srt
  56. Language                                 : English
  57. Default                                  : Yes
  58. Forced                                   : Yes

  59. Text #2
  60. ID                                       : 4
  61. Format                                   : PGS
  62. Muxing mode                              : zlib
  63. Codec ID                                 : S_HDMV/PGS
  64. Codec ID/Info                            : Picture based subtitle format used on BDs/HD-DVDs
  65. Duration                                 : 1 h 2 min
  66. Bit rate                                 : 996 b/s
  67. Count of elements                        : 56
  68. Stream size                              : 456 KiB (0%)
  69. Title                                    : forced
  70. Language                                 : English
  71. Default                                  : No
  72. Forced                                   : No

  73. Text #3
  74. ID                                       : 5
  75. Format                                   : PGS
  76. Muxing mode                              : zlib
  77. Codec ID                                 : S_HDMV/PGS
  78. Codec ID/Info                            : Picture based subtitle format used on BDs/HD-DVDs
  79. Duration                                 : 1 h 53 min
  80. Bit rate                                 : 20.8 kb/s
  81. Count of elements                        : 1646
  82. Stream size                              : 16.9 MiB (0%)
  83. Language                                 : German
  84. Default                                  : No
  85. Forced                                   : No

  86. Menu
  87. 00:00:00.000                             : en:Kapitel 01
  88. 00:03:42.764                             : en:Kapitel 02
  89. 00:12:18.446                             : en:Kapitel 03
  90. 00:20:37.111                             : en:Kapitel 04
  91. 00:30:05.345                             : en:Kapitel 05
  92. 00:39:08.346                             : en:Kapitel 06
  93. 00:51:10.234                             : en:Kapitel 07
  94. 00:58:09.653                             : en:Kapitel 08
  95. 01:07:15.240                             : en:Kapitel 09
  96. 01:15:07.336                             : en:Kapitel 10
  97. 01:24:36.780                             : en:Kapitel 11
  98. 01:33:25.600                             : en:Kapitel 12
  99. 01:42:07.330                             : en:Kapitel 13
  100. 01:49:26.185                             : en:Kapitel 14
复制代码




                                       
                                       

                                       
                                       
                                       




回复

使用道具 举报

懒得打字嘛,点击右侧快捷回复 【右侧内容,后台自定义】
您需要登录后才可以回帖 登录 | 立即加入

本版积分规则

Archiver|小黑屋| 蓝光电影网 |网站地图

Copyright © 2021 Comsenz Inc. Powered by 蓝光电影网

蓝光电影网

本站内容由用户自主分享和转载自互联网,转载目的在于传递更多信息,并不代表本网赞同其观点和对其真实性负责。

如有侵权、违反国家法律政策行为,请联系我们,我们会第一时间及时清除和处理!

举报反馈邮箱:[email protected]

快速回复 返回顶部 返回列表