找回密码

蓝光电影网

查看: 9|回复: 0

[剧情] 无名大师 One.Last.Deal.2018.FINNISH.1080p.BluRay.x264.DTS-CHD 7.45GB

[复制链接]
蓝光币
511
发表于 2020-11-5 08:56:50 | 显示全部楼层 |阅读模式


◎译  名 知名大师/Dark Christ/One Last Deal/匿名的画作(台)
◎片  名 Tuntematon mestari
◎年  代 2018
◎产  地 芬兰
◎类  别 剧情
◎语  言 芬兰语,瑞典语
◎上映日期 2018-09-07(多伦多电影节) / 2019-01-04(芬兰)
◎IMDb评分  7.4/10 from 705 users
◎IMDb链接  https://www.imdb.com/title/tt5851680/
◎豆瓣评分 7.5/10 from 696 users
◎豆瓣链接 https://movie.douban.com/subject/28460045/
◎片  长 95分钟
◎导  演 克劳斯·哈洛 Klaus H?r?
◎编  剧 安娜·海纳玛 Anna Hein?maa
◎主  演 海奇·诺西艾南 Heikki Nousiainen
       皮霍·朗卡 Pirjo Lonka
       佩尔蒂·斯维霍姆 Pertti Sveholm
       斯特凡·索克 Stefan Sauk
◎标  签 芬兰 | 艺术 | 家庭 | 剧情 | 芬兰电影 | 人性 | 文艺 | 文艺片
◎简  介


  眼尖的他發現:那幅畫作應是出自俄國大師列賓之手...
  
  住在赫爾辛基畫的商奧拉維,總將藝術與工作視為第一,甚至是以疏忽了家庭和親人。在退休前的一場拍賣會上,一幅塵封的畫作,意外吸引了奧拉維的留意。他眼尖發現:那幅畫作應該是出自俄國現實主義大師列賓(Ilya Repin)之手!何如畫作上並未签名,加上拍賣目錄資料無多,致使價格低落、乏人問津...。
  
  
  
  嗅到商機的奧拉維,決定在退休前再幹最後一筆买卖,只要證實該畫確屬列賓真跡,立即價值連城,他就能從中大撈一筆...。此時,奧拉維多年不見的女兒蕾拉忽然出現,拜託他代為照顧15歲的孫子奧多。為避免打草驚蛇,奧拉維於是叫奧多去調查畫作布景,自己則四處借貸購畫的資金。
  
  
  
  奧多查出該畫作確實為列賓所繪,此時資金借貸到位的奧拉維,決定要孤注一擲。但讓他最感納悶的是:列賓為何要匿名作畫?而這幅未签名的畫作,又若何能證據出自他手,並飆出驚人的銷售記錄?
  1. Video
  2. ID                                       : 1
  3. Format                                   : AVC
  4. Format/Info                              : Advanced Video Codec
  5. Format profile                           : [email protected]
  6. Format settings                          : CABAC / 4 Ref Frames
  7. Format settings, CABAC                   : Yes
  8. Format settings, Reference frames        : 4 frames
  9. Codec ID                                 : V_MPEG4/ISO/AVC
  10. Duration                                 : 1 h 34 min
  11. Bit rate                                 : 10.5 Mb/s
  12. Width                                    : 1 920 pixels
  13. Height                                   : 804 pixels
  14. Display aspect ratio                     : 2.40:1
  15. Frame rate mode                          : Constant
  16. Frame rate                               : 23.976 (24000/1001/189150) FPS
  17. Color space                              : YUV
  18. Chroma subsampling                       : 4:2:0
  19. Bit depth                                : 8 bits
  20. Scan type                                : Progressive
  21. Bits/(Pixel*Frame)                       : 0.284
  22. Stream size                              : 6.94 GiB (93%)
  23. Writing library                          : x264 core 161 r3018+53 18a1d6c t_mod_New [(8 & 10)[email protected] X86_64]
  24. Encoding settings                        : cabac=1 / ref=4 / deblock=1:-3:-3 / analyse=0x3:0x133 / me=umh / subme=11 / psy=1 / fade_compensate=0.00 / psy_rd=1.00:0.00 / mixed_ref=1 / me_range=64 / chroma_me=1 / trellis=2 / 8x8dct=1 / cqm=0 / deadzone=21,11 / fast_pskip=0 / chroma_qp_offset=-3 / threads=25 / lookahead_threads=4 / sliced_threads=0 / nr=0 / decimate=1 / interlaced=0 / bluray_compat=0 / constrained_intra=0 / fgo=0 / bframes=8 / b_pyramid=2 / b_adapt=2 / b_bias=0 / direct=3 / weightb=1 / open_gop=0 / weightp=2 / keyint=250 / keyint_min=23 / scenecut=40 / intra_refresh=0 / rc=crf / mbtree=0 / crf=16.0000 / qcomp=0.70 / qpmin=0:0:0 / qpmax=69:69:69 / qpstep=4 / ip_ratio=1.30 / pb_ratio=1.20 / aq=3:1.00 / aq-sensitivity=10.00 / aq-factor=1.00:1.00:1.00 / aq2=0 / aq3=0
  25. Language                                 : Finnish
  26. Default                                  : Yes
  27. Forced                                   : No
  28. Color range                              : Limited
  29. Color primaries                          : BT.709
  30. Transfer characteristics                 : BT.709
  31. Matrix coefficients                      : BT.709
  32. Audio
  33. ID                                       : 2
  34. Format                                   : DTS
  35. Format/Info                              : Digital Theater Systems
  36. Codec ID                                 : A_DTS
  37. Duration                                 : 1 h 34 min
  38. Bit rate mode                            : Constant
  39. Bit rate                                 : 768 kb/s
  40. Channel(s)                               : 6 channels
  41. Channel layout                           : C L R Ls Rs LFE
  42. Sampling rate                            : 48.0 kHz
  43. Frame rate                               : 93.750 FPS (512 SPF)
  44. Bit depth                                : 24 bits
  45. Compression mode                         : Lossy
  46. Stream size                              : 519 MiB (7%)
  47. Language                                 : Finnish
  48. Default                                  : Yes
  49. Forced                                   : No
  50. Text
  51. ID                                       : 3
  52. Format                                   : UTF-8
  53. Codec ID                                 : S_TEXT/UTF8
  54. Codec ID/Info                            : UTF-8 Plain Text
  55. Duration                                 : 1 h 30 min
  56. Bit rate                                 : 34 b/s
  57. Count of elements                        : 691
  58. Stream size                              : 22.8 KiB (0%)
  59. Language                                 : English
  60. Default                                  : Yes
  61. Forced                                   : No
  62. Menu
  63. 00:00:00.000                             : en:Chapter 01
  64. 00:00:01.876                             : en:Chapter 02
  65. 00:07:20.773                             : en:Chapter 03
  66. 00:14:00.339                             : en:Chapter 04
  67. 00:19:34.464                             : en:Chapter 05
  68. 00:34:17.930                             : en:Chapter 06
  69. 00:49:30.509                             : en:Chapter 07
  70. 00:55:02.424                             : en:Chapter 08
  71. 01:02:38.880                             : en:Chapter 09
  72. 01:11:55.102                             : en:Chapter 10
  73. 01:17:18.675                             : en:Chapter 11
  74. 01:22:21.937                             : en:Chapter 12
  75. 01:30:26.879                             : en:Chapter 13
复制代码






                                       
                                       

                                       
                                       
                                       




回复

使用道具 举报

懒得打字嘛,点击右侧快捷回复 【右侧内容,后台自定义】
您需要登录后才可以回帖 登录 | 立即加入

本版积分规则

Archiver|小黑屋| 蓝光电影网 |网站地图

Copyright © 2021 Comsenz Inc. Powered by 蓝光电影网

蓝光电影网

本站内容由用户自主分享和转载自互联网,转载目的在于传递更多信息,并不代表本网赞同其观点和对其真实性负责。

如有侵权、违反国家法律政策行为,请联系我们,我们会第一时间及时清除和处理!

举报反馈邮箱:[email protected]

快速回复 返回顶部 返回列表