找回密码

蓝光电影网

查看: 10|回复: 0

[剧情] 午夜惊情/激情刽子手 Sea.of.Love.1989.1080p.BluRay.x264.DD5.1-FGT 7.44GB

[复制链接]
蓝光币
511
发表于 2020-11-5 08:42:16 | 显示全部楼层 |阅读模式


◎译  名 半夜惊情/豪情刽子手/爱之海
◎片  名 Sea of Love
◎年  代 1989
◎产  地 美国
◎类  别 剧情 / 惊悚 / 犯罪
◎语  言 英语
◎上映日期 1989-09-15
◎IMDb评分  6.8/10 from 37382 users
◎IMDb链接  https://www.imdb.com/title/tt0098273/
◎豆瓣评分 7.4/10 from 2286 users
◎豆瓣链接 https://movie.douban.com/subject/1295533/
◎片  长 112 分钟
◎导  演 哈罗德·贝克尔 Harold Becker
◎编  剧 理查德·普莱斯 Richard Price
◎主  演 阿尔·帕西诺 Al Pacino
       艾伦·巴金 Ellen Barkin
       约翰·古德曼 John Goodman
       迈克尔·鲁克 Michael Rooker
       理查德·詹金斯 Richard Jenkins
       南茜·比蒂 Nancy Beatty
       塞缪尔·杰克逊 Samuel L. Jackson
◎标  签 阿尔·帕西诺 | 美国 | 悬疑 | 犯罪 | AlPacino | 美国电影 | 惊悚 | 1989
◎简  介


  被妻子抛弃的疾苦让差人弗兰克(阿尔·帕西诺 Al Pacino 饰)堕入了疾苦的深渊没法自拔,逐日,只要尼古丁与酒精才可以赐与他救赎。一宗谋杀案的发生打破了城市的安静,弗兰克和同伴舍曼(约翰·古德曼 John Goodman 饰)负责此案。经过各种观察,弗兰克发现凶手是一位女子,她经过报纸上的征友启事寻觅猎物,以后残暴的将他们杀戮。
  
  为了追击凶手,弗兰克捏造了自己的身份在报纸上刊登了启事,一个叫做海伦(艾伦·巴金 Ellen Barkin 饰)的女人出现在了他的眼前。几近一切的证据都证实了海伦就是案件的真凶,但现在的弗兰克发现,自己居然真的对海伦发生了依靠和豪情,与此同时,危险也静静的来到了他的身旁。
  1. Video
  2. ID                                       : 1
  3. Format                                   : AVC
  4. Format/Info                              : Advanced Video Codec
  5. Format profile                           : [email protected]
  6. Format settings                          : CABAC / 4 Ref Frames
  7. Format settings, CABAC                   : Yes
  8. Format settings, Reference frames        : 4 frames
  9. Codec ID                                 : V_MPEG4/ISO/AVC
  10. Duration                                 : 1 h 52 min
  11. Bit rate                                 : 8 811 kb/s
  12. Width                                    : 1 920 pixels
  13. Height                                   : 1 040 pixels
  14. Display aspect ratio                     : 1.85:1
  15. Frame rate mode                          : Constant
  16. Frame rate                               : 23.976 (24000/1001/189150) FPS
  17. Color space                              : YUV
  18. Chroma subsampling                       : 4:2:0
  19. Bit depth                                : 8 bits
  20. Scan type                                : Progressive
  21. Bits/(Pixel*Frame)                       : 0.184
  22. Stream size                              : 6.79 GiB (91%)
  23. Writing library                          : x264 core 133 r2334 a3ac64b
  24. Encoding settings                        : cabac=1 / ref=4 / deblock=1:-3:-3 / analyse=0x3:0x113 / me=umh / subme=11 / psy=1 / psy_rd=1.00:0.15 / mixed_ref=1 / me_range=32 / chroma_me=1 / trellis=2 / 8x8dct=1 / cqm=0 / deadzone=21,11 / fast_pskip=0 / chroma_qp_offset=-3 / threads=6 / lookahead_threads=1 / sliced_threads=0 / nr=0 / decimate=0 / interlaced=0 / bluray_compat=0 / constrained_intra=0 / bframes=6 / b_pyramid=2 / b_adapt=2 / b_bias=0 / direct=3 / weightb=1 / open_gop=0 / weightp=2 / keyint=240 / keyint_min=23 / scenecut=40 / intra_refresh=0 / rc=2pass / mbtree=0 / bitrate=8811 / ratetol=1.0 / qcomp=0.60 / qpmin=0 / qpmax=69 / qpstep=4 / cplxblur=20.0 / qblur=0.5 / ip_ratio=1.40 / pb_ratio=1.30 / aq=1:0.95
  25. Language                                 : English
  26. Default                                  : Yes
  27. Forced                                   : No

  28. Audio
  29. ID                                       : 2
  30. Format                                   : AC-3
  31. Format/Info                              : Audio Coding 3
  32. Commercial name                          : Dolby Digital
  33. Codec ID                                 : A_AC3
  34. Duration                                 : 1 h 52 min
  35. Bit rate mode                            : Constant
  36. Bit rate                                 : 640 kb/s
  37. Channel(s)                               : 6 channels
  38. Channel layout                           : L R C LFE Ls Rs
  39. Sampling rate                            : 48.0 kHz
  40. Frame rate                               : 31.250 FPS (1536 SPF)
  41. Compression mode                         : Lossy
  42. Stream size                              : 516 MiB (7%)
  43. Language                                 : English
  44. Service kind                             : Complete Main
  45. Default                                  : Yes
  46. Forced                                   : No

  47. Menu
  48. 00:00:00.000                             : en:00:00:00.000
  49. 00:03:33.338                             : en:00:03:33.338
  50. 00:10:44.769                             : en:00:10:44.769
  51. 00:18:16.637                             : en:00:18:16.637
  52. 00:26:27.461                             : en:00:26:27.461
  53. 00:33:52.864                             : en:00:33:52.864
  54. 00:38:40.527                             : en:00:38:40.527
  55. 00:45:03.951                             : en:00:45:03.951
  56. 00:57:33.909                             : en:00:57:33.909
  57. 01:04:00.211                             : en:01:04:00.211
  58. 01:10:37.859                             : en:01:10:37.859
  59. 01:18:22.239                             : en:01:18:22.239
  60. 01:26:39.694                             : en:01:26:39.694
  61. 01:31:31.695                             : en:01:31:31.695
  62. 01:38:29.862                             : en:01:38:29.862
  63. 01:42:48.454                             : en:01:42:48.454
复制代码





                                       
                                       

                                       
                                       
                                       




回复

使用道具 举报

懒得打字嘛,点击右侧快捷回复 【右侧内容,后台自定义】
您需要登录后才可以回帖 登录 | 立即加入

本版积分规则

Archiver|小黑屋| 蓝光电影网 |网站地图

Copyright © 2021 Comsenz Inc. Powered by 蓝光电影网

蓝光电影网

本站内容由用户自主分享和转载自互联网,转载目的在于传递更多信息,并不代表本网赞同其观点和对其真实性负责。

如有侵权、违反国家法律政策行为,请联系我们,我们会第一时间及时清除和处理!

举报反馈邮箱:[email protected]

快速回复 返回顶部 返回列表