找回密码

蓝光电影网

查看: 10|回复: 0

[剧情] 身后事/来世 Afterlife.2009.1080p.BluRay.x264.DTS-FGT 7.49GB

[复制链接]
蓝光币
515
发表于 2020-11-5 08:39:25 | 显示全部楼层 |阅读模式


◎译  名 死后事/来世/灵异生死线/生命之旅
◎片  名 After.Life
◎年  代 2009
◎产  地 美国
◎类  别 剧情 / 悬疑 / 惊悚
◎语  言 英语
◎上映日期 2009-11-07(美国)
◎IMDb评分  5.9/10 from 36159 users
◎IMDb链接  https://www.imdb.com/title/tt0838247/
◎豆瓣评分 6.8/10 from 15475 users
◎豆瓣链接 https://movie.douban.com/subject/1986567/
◎片  长 104分钟
◎导  演 阿格尼兹卡·沃特维兹-沃斯洛 Agnieszka Wojtowicz-Vosloo
◎编  剧 阿格尼兹卡·沃特维兹-沃斯洛 Agnieszka Wojtowicz-Vosloo
◎主  演 连姆·尼森 Liam Neeson
       克里斯蒂娜·里奇 Christina Ricci
       贾斯汀·朗 Justin Long
       乔西·查尔斯 Josh Charles
       钱德勒·坎特布瑞 Chandler Canterbury
       杰克·罗韦洛 Jack Rovello
◎标  签 悬疑 | 惊悚 | 美国 | 可骇 | 美国电影 | 可骇电影 | 心理 | After.Life
◎简  介


  安娜(克里斯蒂娜?里奇 Christina Ricci 饰)是一次车祸的幸存者,但是她惊奇的发现自己已经被判定了灭亡。证据是她的葬礼已经在预备中,负责人正是葬礼主管艾略特(连姆?尼森 Liam Neeson 饰)。安娜对此既不解又恐惧。由于她很清楚,葬礼的尽头就是入棺生坑。她对艾略特现身,希望后者对峙自己还在世的真相。两小我在封锁的停尸间停止着辩说,艾略特对峙实行自己的职责,并对安娜诠释她到“来世”的各种缘由。而安娜面临不见底的黑暗,心里非常悲凉。但是,艾略特并不认同安娜的说法。他对峙自己是由于通灵才能辨识安娜的游魂。只要一小我还深信安娜在世,那就是她的男友保罗(贾斯汀?朗 Justin Long 饰)。他并不认同艾略特的说法,对峙观察安娜的死因,渐渐地,他接近了真相……
  1. Video
  2. ID                                       : 1
  3. Format                                   : AVC
  4. Format/Info                              : Advanced Video Codec
  5. Format profile                           : [email protected]
  6. Format settings                          : CABAC / 5 Ref Frames
  7. Format settings, CABAC                   : Yes
  8. Format settings, Reference frames        : 5 frames
  9. Codec ID                                 : V_MPEG4/ISO/AVC
  10. Duration                                 : 1 h 42 min
  11. Bit rate                                 : 8 910 kb/s
  12. Width                                    : 1 920 pixels
  13. Height                                   : 798 pixels
  14. Display aspect ratio                     : 2.40:1
  15. Frame rate mode                          : Constant
  16. Frame rate                               : 23.976 (24000/1001/189150) FPS
  17. Color space                              : YUV
  18. Chroma subsampling                       : 4:2:0
  19. Bit depth                                : 8 bits
  20. Scan type                                : Progressive
  21. Bits/(Pixel*Frame)                       : 0.243
  22. Stream size                              : 6.25 GiB (84%)
  23. Writing library                          : x264 core 104 r1703 cd21d05
  24. Encoding settings                        : cabac=1 / ref=5 / deblock=1:-3:-3 / analyse=0x3:0x113 / me=umh / subme=10 / psy=1 / psy_rd=1.00:0.00 / mixed_ref=1 / me_range=32 / chroma_me=1 / trellis=2 / 8x8dct=1 / cqm=0 / deadzone=21,11 / fast_pskip=0 / chroma_qp_offset=-2 / threads=6 / sliced_threads=0 / nr=0 / decimate=0 / interlaced=0 / constrained_intra=0 / bframes=10 / b_pyramid=2 / b_adapt=2 / b_bias=0 / direct=3 / weightb=1 / open_gop=0 / weightp=2 / keyint=250 / keyint_min=23 / scenecut=40 / intra_refresh=0 / rc=2pass / mbtree=0 / bitrate=8910 / ratetol=1.0 / qcomp=0.60 / qpmin=10 / qpmax=51 / qpstep=4 / cplxblur=20.0 / qblur=0.5 / ip_ratio=1.40 / pb_ratio=1.30 / aq=1:0.50
  25. Language                                 : English
  26. Default                                  : Yes
  27. Forced                                   : No

  28. Audio
  29. ID                                       : 2
  30. Format                                   : DTS
  31. Format/Info                              : Digital Theater Systems
  32. Codec ID                                 : A_DTS
  33. Duration                                 : 1 h 42 min
  34. Bit rate mode                            : Constant
  35. Bit rate                                 : 1 509 kb/s
  36. Channel(s)                               : 6 channels
  37. Channel layout                           : C L R Ls Rs LFE
  38. Sampling rate                            : 48.0 kHz
  39. Frame rate                               : 93.750 FPS (512 SPF)
  40. Bit depth                                : 16 bits
  41. Compression mode                         : Lossy
  42. Stream size                              : 1.08 GiB (14%)
  43. Language                                 : English
  44. Default                                  : Yes
  45. Forced                                   : No

  46. Text
  47. ID                                       : 3
  48. Format                                   : UTF-8
  49. Codec ID                                 : S_TEXT/UTF8
  50. Codec ID/Info                            : UTF-8 Plain Text
  51. Language                                 : English
  52. Default                                  : No
  53. Forced                                   : No

  54. Menu
  55. 00:00:00.000                             : en:1. Somewhere Else
  56. 00:03:59.114                             : en:2. Final Respects
  57. 00:10:38.805                             : en:3. Misunderstanding
  58. 00:14:13.978                             : en:4. Massive Internal Trauma
  59. 00:20:48.038                             : en:5. Devastating News
  60. 00:30:44.634                             : en:6. "The Dead Can't Harm the Dead"
  61. 00:41:26.901                             : en:7. Feels More Like Hell
  62. 00:47:25.342                             : en:8. "You Will Never Live Again"
  63. 00:59:30.859                             : en:9. Ghostly Vision
  64. 01:05:01.231                             : en:10. Nothing to Say
  65. 01:11:23.362                             : en:11. "You Can't Help Her Anymore"
  66. 01:17:07.456                             : en:12. Too Scared to Love
  67. 01:24:21.265                             : en:13. The Funeral
  68. 01:29:47.674                             : en:14. Premature Burial
  69. 01:34:39.382                             : en:15. The Night Anna Came Out of the Grave
  70. 01:37:14.787                             : en:16. End Credits
复制代码






                                       
                                       

                                       
                                       
                                       




回复

使用道具 举报

懒得打字嘛,点击右侧快捷回复 【右侧内容,后台自定义】
您需要登录后才可以回帖 登录 | 立即加入

本版积分规则

Archiver|小黑屋| 蓝光电影网 |网站地图

Copyright © 2021 Comsenz Inc. Powered by 蓝光电影网

蓝光电影网

本站内容由用户自主分享和转载自互联网,转载目的在于传递更多信息,并不代表本网赞同其观点和对其真实性负责。

如有侵权、违反国家法律政策行为,请联系我们,我们会第一时间及时清除和处理!

举报反馈邮箱:[email protected]

快速回复 返回顶部 返回列表