找回密码

蓝光电影网

查看: 13|回复: 0

[剧情] 鬼使神差/信使 The.Messengers.2007.1080p.BluRay.x264.DTS-FGT 7.89GB

[复制链接]
蓝光币
515
发表于 2020-11-5 08:21:21 | 显示全部楼层 |阅读模式


◎译  名 鬼使神差/信使/鬼差
◎片  名 The Messengers
◎年  代 2007
◎产  地 美国
◎类  别 剧情 / 悬疑 / 可骇
◎语  言 英语
◎上映日期 2007-02-02
◎IMDb评分  5.4/10 from 38103 users
◎IMDb链接  https://www.imdb.com/title/tt0425430/
◎豆瓣评分 6.1/10 from 4553 users
◎豆瓣链接 https://movie.douban.com/subject/1584898/
◎片  长 USA: 90 分钟
◎导  演 彭发 Danny Pang / 彭顺 Oxide Pang
◎编  剧 马克·惠顿 Mark Wheaton
◎主  演 克里斯汀·斯图尔特 Kristen Stewart
       迪伦·麦克德莫特 Dylan McDermott
       佩内洛普·安·米勒 Penelope Ann Miller
       约翰·考伯特 John Corbett
       威廉·B·戴维斯 William B. Davis
       布兰特·布里斯科 Brent Briscoe
       达斯汀·米利甘 Dustin Milligan
       祖蒂·弗兰 Jodelle Ferland
       Michael Daingerfield
       塔提阿娜·玛斯拉尼 Tatiana Maslany
       安娜·哈根 Anna Hagan
◎标  签 可骇 | 惊悚 | 美国 | 彭氏兄弟 | 美国电影 | 灵异 | 悬疑 | 2007
◎简  介


  由于工作和家庭题目一团糟,罗伊·所罗门(迪兰·麦克德莫特 Dylan McDermott饰)和妻子丹妮丝(佩内洛普·安·米勒 Penelope Ann Miller饰)带着正处在青春躁动期的女儿杰西(克里斯汀·斯图尔特 Kristen Stewart饰)和小儿子本(伊万·特纳 Evan Turner 饰),从冷冷清清的大城市芝加哥来到了荒凉的北达科他州。他们在当地采办了一座名为“向日葵”的烧毁农场,筹算在这里展开新的人生。
  
  但是,美好的向常常往为残暴的现实所打破。在农场修缮进程中,诡异的事务不竭出现,杰西和弟弟恍如也能看见一些成人看不到的工具。阴森的氛围压得这家人几近透不外气来,但真正可骇的工作还远远不止于此……
  1. Video
  2. ID                                       : 1
  3. Format                                   : AVC
  4. Format/Info                              : Advanced Video Codec
  5. Format profile                           : [email protected]
  6. Format settings                          : CABAC / 3 Ref Frames
  7. Format settings, CABAC                   : Yes
  8. Format settings, Reference frames        : 3 frames
  9. Codec ID                                 : V_MPEG4/ISO/AVC
  10. Duration                                 : 1 h 30 min
  11. Bit rate mode                            : Variable
  12. Bit rate                                 : 11.0 Mb/s
  13. Maximum bit rate                         : 40.0 Mb/s
  14. Width                                    : 1 920 pixels
  15. Height                                   : 1 036 pixels
  16. Display aspect ratio                     : 1.85:1
  17. Frame rate mode                          : Constant
  18. Frame rate                               : 23.976 (24000/1001/189150) FPS
  19. Color space                              : YUV
  20. Chroma subsampling                       : 4:2:0
  21. Bit depth                                : 8 bits
  22. Scan type                                : Progressive
  23. Bits/(Pixel*Frame)                       : 0.230
  24. Stream size                              : 6.78 GiB (86%)
  25. Writing library                          : x264 core 80 r1376M 3feaec2
  26. Encoding settings                        : cabac=1 / ref=4 / deblock=1:0:0 / analyse=0x3:0x133 / me=umh / subme=10 / psy=1 / psy_rd=1.0:0.0 / mixed_ref=1 / me_range=24 / chroma_me=1 / trellis=2 / 8x8dct=1 / cqm=0 / deadzone=21,11 / fast_pskip=1 / chroma_qp_offset=-2 / threads=6 / sliced_threads=0 / slices=4 / nr=0 / decimate=1 / mbaff=0 / constrained_intra=0 / bframes=3 / b_pyramid=1 / b_adapt=2 / b_bias=0 / direct=3 / wpredb=1 / wpredp=2 / keyint=24 / keyint_min=2 / scenecut=40 / rc_lookahead=24 / rc=2pass / mbtree=1 / bitrate=10989 / ratetol=1.0 / qcomp=0.60 / qpmin=10 / qpmax=51 / qpstep=4 / cplxblur=20.0 / qblur=0.5 / vbv_maxrate=40000 / vbv_bufsize=30000 / ip_ratio=1.40 / aq=1:1.00
  27. Language                                 : English
  28. Default                                  : Yes
  29. Forced                                   : No

  30. Audio
  31. ID                                       : 2
  32. Format                                   : DTS
  33. Format/Info                              : Digital Theater Systems
  34. Codec ID                                 : A_DTS
  35. Duration                                 : 1 h 30 min
  36. Bit rate mode                            : Constant
  37. Bit rate                                 : 1 510 kb/s
  38. Channel(s)                               : 6 channels
  39. Channel layout                           : C L R Ls Rs LFE
  40. Sampling rate                            : 48.0 kHz
  41. Frame rate                               : 93.750 FPS (512 SPF)
  42. Bit depth                                : 16 bits
  43. Compression mode                         : Lossy
  44. Stream size                              : 977 MiB (12%)
  45. Language                                 : English
  46. Default                                  : Yes
  47. Forced                                   : No

  48. Text
  49. ID                                       : 3
  50. Format                                   : UTF-8
  51. Codec ID                                 : S_TEXT/UTF8
  52. Codec ID/Info                            : UTF-8 Plain Text
  53. Language                                 : English
  54. Default                                  : No
  55. Forced                                   : No
复制代码





                                       
                                       

                                       
                                       
                                       




回复

使用道具 举报

懒得打字嘛,点击右侧快捷回复 【右侧内容,后台自定义】
您需要登录后才可以回帖 登录 | 立即加入

本版积分规则

Archiver|小黑屋| 蓝光电影网 |网站地图

Copyright © 2021 Comsenz Inc. Powered by 蓝光电影网

蓝光电影网

本站内容由用户自主分享和转载自互联网,转载目的在于传递更多信息,并不代表本网赞同其观点和对其真实性负责。

如有侵权、违反国家法律政策行为,请联系我们,我们会第一时间及时清除和处理!

举报反馈邮箱:[email protected]

快速回复 返回顶部 返回列表