找回密码

蓝光电影网

查看: 9|回复: 0

[剧情] 致命的危机/恐惧 Fear.1996.1080p.BluRay.x264.DTS-FGT 13.15GB

[复制链接]
蓝光币
511
发表于 2020-11-5 08:13:09 | 显示全部楼层 |阅读模式


◎译  名 致命的危机/恐惧
◎片  名 Fear
◎年  代 1996
◎产  地 美国
◎类  别 剧情 / 惊悚
◎语  言 英语
◎上映日期 1996-04-12
◎IMDb评分  6.3/10 from 40625 users
◎IMDb链接  https://www.imdb.com/title/tt0116287/
◎豆瓣评分 6.4/10 from 703 users
◎豆瓣链接 https://movie.douban.com/subject/1301714/
◎片  长 97 分钟
◎导  演 詹姆斯·弗雷 James Foley
◎编  剧 克里斯托弗·克劳 Christopher Crowe
◎主  演 瑞茜·威瑟斯彭 Reese Witherspoon
       马克·沃尔伯格 Mark Wahlberg
       威廉·彼德森 William Petersen
       杰德·瑞斯 Jed Rees
       加里·莱利 Gary Riley
       Todd Caldecott
       安德鲁·爱尔莱 Andrew Airlie
       艾莉莎·米兰诺 Alyssa Milano
       艾米·布伦尼曼 Amy Brenneman
◎标  签 惊悚 | 美国 | 剧情 | 犯罪 | 美国电影 | ReeseWitherspoon | 马克沃尔伯格 | 1996
◎简  介


  妮可人(瑞茜·威瑟斯彭 Reese Witherspoon 饰)生活在一个看似幸运的家庭当中,饱受父亲的疼爱,但是,对于妮可人来说,这一切的欢畅都是假象,她的心仍然在严寒的孤独中无依无靠。某日,妮可人和洽友玛格(艾莉莎·米兰诺 Alyssa Milano 饰)一路加入了一个热烈的派对,在派对上,妮可人相逢了名为大卫(马克·沃尔伯格 Mark Wahlberg 饰)的男人。
  
  妮可人对高峻威猛的大卫一见倾慕,坠入了情网,很快,两人就走到了一路。本以为终究找到了通往幸运的门路,但妮可人很快发现,自己实在翻开了潘多拉的魔盒。大卫展现出的独占欲和暴力偏向让她感应非常不安,她想要分开大卫,却发现自己和家人早已经被大卫的阴影牢牢覆盖。
  1. Video
  2. ID                                       : 1
  3. Format                                   : AVC
  4. Format/Info                              : Advanced Video Codec
  5. Format profile                           : [email protected]4.1
  6. Format settings                          : CABAC / 4 Ref Frames
  7. Format settings, CABAC                   : Yes
  8. Format settings, Reference frames        : 4 frames
  9. Codec ID                                 : V_MPEG4/ISO/AVC
  10. Duration                                 : 1 h 36 min
  11. Bit rate                                 : 17.5 Mb/s
  12. Width                                    : 1 920 pixels
  13. Height                                   : 816 pixels
  14. Display aspect ratio                     : 2.35:1
  15. Frame rate mode                          : Constant
  16. Frame rate                               : 23.976 (23976/1000/189150) FPS
  17. Color space                              : YUV
  18. Chroma subsampling                       : 4:2:0
  19. Bit depth                                : 8 bits
  20. Scan type                                : Progressive
  21. Bits/(Pixel*Frame)                       : 0.467
  22. Stream size                              : 11.9 GiB (90%)
  23. Writing library                          : x264 core 129 r2230 1cffe9f
  24. Encoding settings                        : cabac=1 / ref=4 / deblock=1:-1:-1 / analyse=0x3:0x133 / me=umh / subme=9 / psy=1 / psy_rd=1.00:0.15 / mixed_ref=1 / me_range=24 / chroma_me=1 / trellis=2 / 8x8dct=1 / cqm=0 / deadzone=21,11 / fast_pskip=0 / chroma_qp_offset=-3 / threads=12 / lookahead_threads=2 / sliced_threads=0 / nr=0 / decimate=1 / interlaced=0 / bluray_compat=0 / constrained_intra=0 / bframes=3 / b_pyramid=2 / b_adapt=2 / b_bias=0 / direct=3 / weightb=1 / open_gop=0 / weightp=2 / keyint=250 / keyint_min=23 / scenecut=40 / intra_refresh=0 / rc_lookahead=60 / rc=crf / mbtree=1 / crf=18.0 / qcomp=0.60 / qpmin=0 / qpmax=69 / qpstep=4 / ip_ratio=1.40 / aq=1:1.00
  25. Language                                 : English
  26. Default                                  : Yes
  27. Forced                                   : No

  28. Audio
  29. ID                                       : 2
  30. Format                                   : DTS
  31. Format/Info                              : Digital Theater Systems
  32. Codec ID                                 : A_DTS
  33. Duration                                 : 1 h 36 min
  34. Bit rate mode                            : Constant
  35. Bit rate                                 : 1 509 kb/s
  36. Channel(s)                               : 6 channels
  37. Channel layout                           : C L R Ls Rs LFE
  38. Sampling rate                            : 48.0 kHz
  39. Frame rate                               : 93.750 FPS (512 SPF)
  40. Bit depth                                : 24 bits
  41. Compression mode                         : Lossy
  42. Stream size                              : 1.02 GiB (8%)
  43. Language                                 : English
  44. Default                                  : Yes
  45. Forced                                   : No

  46. Text
  47. ID                                       : 3
  48. Format                                   : UTF-8
  49. Codec ID                                 : S_TEXT/UTF8
  50. Codec ID/Info                            : UTF-8 Plain Text
  51. Language                                 : English
  52. Default                                  : No
  53. Forced                                   : No

  54. Menu
  55. 00:00:00.000                             : en:00:00:00.000
  56. 00:04:48.705                             : en:00:04:48.705
  57. 00:11:06.124                             : en:00:11:06.124
  58. 00:15:12.036                             : en:00:15:12.036
  59. 00:19:51.816                             : en:00:19:51.816
  60. 00:21:52.645                             : en:00:21:52.645
  61. 00:30:55.812                             : en:00:30:55.812
  62. 00:35:03.435                             : en:00:35:03.435
  63. 00:39:53.099                             : en:00:39:53.099
  64. 00:48:01.295                             : en:00:48:01.295
  65. 00:52:12.629                             : en:00:52:12.629
  66. 00:59:25.103                             : en:00:59:25.103
  67. 01:05:07.070                             : en:01:05:07.070
  68. 01:09:29.290                             : en:01:09:29.290
  69. 01:15:18.222                             : en:01:15:18.222
  70. 01:22:02.292                             : en:01:22:02.292
  71. 01:26:38.276                             : en:01:26:38.276
  72. 01:32:29.502                             : en:01:32:29.502
复制代码









                                       
                                       

                                       
                                       
                                       




回复

使用道具 举报

懒得打字嘛,点击右侧快捷回复 【右侧内容,后台自定义】
您需要登录后才可以回帖 登录 | 立即加入

本版积分规则

Archiver|小黑屋| 蓝光电影网 |网站地图

Copyright © 2021 Comsenz Inc. Powered by 蓝光电影网

蓝光电影网

本站内容由用户自主分享和转载自互联网,转载目的在于传递更多信息,并不代表本网赞同其观点和对其真实性负责。

如有侵权、违反国家法律政策行为,请联系我们,我们会第一时间及时清除和处理!

举报反馈邮箱:[email protected]

快速回复 返回顶部 返回列表