找回密码

蓝光电影网

查看: 16|回复: 0

[剧情] 内陆帝国 Inland.Empire.2006.1080p.BluRay.x264-AVCHD 13.11GB

[复制链接]
蓝光币
515
发表于 2020-11-4 11:35:32 | 显示全部楼层 |阅读模式


◎译  名 本地帝国
◎片  名 Inland Empire
◎年  代 2006
◎产  地 法国,波兰,美国
◎类  别 剧情 / 悬疑 / 惊悚
◎语  言 英语,波兰语
◎上映日期 2006-09-06(威尼斯电影节) / 2006-12-06(美国)
◎IMDb评分  6.9/10 from 52910 users
◎IMDb链接  https://www.imdb.com/title/tt0460829/
◎豆瓣评分 7.6/10 from 6774 users
◎豆瓣链接 https://movie.douban.com/subject/1438734/
◎片  长 180 分钟
◎导  演 大卫·林奇 David Lynch
◎编  剧 大卫·林奇 David Lynch
◎主  演 劳拉·邓恩 Laura Dern
       杰瑞米·艾恩斯 Jeremy Irons
       贾斯汀·塞洛克斯 Justin Theroux
       卡罗利娜·格鲁什卡 Karolina Gruszka
       扬·亨茨 Jan Hencz
       克兹佐夫·马扎克 Krzysztof Majchrzak
       格蕾丝·扎布里斯基 Grace Zabriskie
       伊安·艾伯克龙比 Ian Abercrombie
       贝利纳·洛根 Bellina Logan
       阿曼达·弗尔曼 Amanda Foreman
       皮特·J.卢卡斯 Peter J. Lucas
       哈利·戴恩·斯坦通 Harry Dean Stanton
       卡梅隆·达多 Cameron Daddo
       杰里·斯塔尔 Jerry Stahl
       戴安·拉德 Diane Ladd
       Dominika Biernat
       斯坦利·卡梅尔 Stanley Kamel
       大卫·林奇 David Lynch
       尼尔·迪克森 Neil Dickson
       Marian Stanislawski
       裕木奈江 Nae
       Duncan K. Fraser
       Marcin Brzozowski
       奥斯汀·林奇 Austin Jack Lynch
       Masuimi Max
       Marsha Lewis
       维罗妮卡·罗萨蒂 Weronika Rosati
       Józef Zbiróg
       Sara Glaser
       莱昂·涅姆奇克 Leon Niemczyk
       泰瑞·克鲁斯 Terry Crews
       娜奥米·沃茨 Naomi Watts
       娜塔莎·金斯基 Nastassja Kinski
       朱莉娅·奥蒙德 Julia Ormond
       乔丹·莱德 Jordan Ladd
       Heidi Bivens
       玛丽·斯汀伯根 Mary Steenburgen
       格雷格·马克斯 Greg Marcks
       斯科特·科菲 Scott Coffey
       本.哈勃 Ben Harper
       威廉姆·H·梅西 William H. Macy
       劳拉·哈灵 Laura Harring
◎标  签 大卫·林奇 | 悬疑 | 美国 | DavidLynch | 2006 | 惊悚 | 剧情 | 美国电影
◎简  介


  在由金斯利(杰瑞米·艾恩斯 Jeremy Irons 饰)导演的电影里,尼基(劳拉·邓恩 Laura Dern 饰)饰演了一个名叫苏珊的女人,她在剧中的情人是戴文(贾斯汀·塞洛克斯 Justin Theroux 饰)所饰演的比利。
  
  关于这部电影,有一个传闻,最早拍摄这个剧本的剧组遭受了一些可怕的古怪履历,致使电影流产。尼基有一个控制欲爆棚的丈夫,在丈夫赐与的庞大压力下,尼基在潜认识里躲进了苏珊这个虚拟的脚色中。随着时候的推移,一些希奇的人出现在了尼基的身旁,一些科学没法诠释的事务接连发生在尼基的生活里,而尼基呢,在混沌和怅惘当中,她已经没法分辨,自己究竟是尼基,还是苏珊。
◎获奖情况
  第63届威尼斯电影节 ?(2006)
  未来数字电影奖 大卫·林奇
  1. Video
  2. ID                                       : 1
  3. Format                                   : AVC
  4. Format/Info                              : Advanced Video Codec
  5. Format profile                           : [email protected]
  6. Format settings                          : CABAC / 4 Ref Frames
  7. Format settings, CABAC                   : Yes
  8. Format settings, Reference frames        : 4 frames
  9. Codec ID                                 : V_MPEG4/ISO/AVC
  10. Duration                                 : 2 h 59 min
  11. Bit rate                                 : 9 674 kb/s
  12. Width                                    : 1 920 pixels
  13. Height                                   : 1 040 pixels
  14. Display aspect ratio                     : 1.85:1
  15. Frame rate mode                          : Constant
  16. Frame rate                               : 23.976 (23976/1000/189150) FPS
  17. Color space                              : YUV
  18. Chroma subsampling                       : 4:2:0
  19. Bit depth                                : 8 bits
  20. Scan type                                : Progressive
  21. Bits/(Pixel*Frame)                       : 0.202
  22. Stream size                              : 11.9 GiB (91%)
  23. Writing library                          : x264 core 93 r1538 bd72d46
  24. Encoding settings                        : cabac=1 / ref=4 / deblock=1:0:0 / analyse=0x3:0x133 / me=umh / subme=8 / psy=1 / psy_rd=1.00:0.00 / mixed_ref=1 / me_range=16 / chroma_me=1 / trellis=1 / 8x8dct=1 / cqm=0 / deadzone=21,11 / fast_pskip=0 / chroma_qp_offset=-2 / threads=12 / sliced_threads=0 / nr=0 / decimate=1 / interlaced=0 / constrained_intra=0 / bframes=3 / b_pyramid=2 / b_adapt=1 / b_bias=0 / direct=1 / wpredb=1 / wpredp=2 / keyint=250 / keyint_min=25 / scenecut=40 / intra_refresh=0 / rc_lookahead=40 / rc=2pass / mbtree=1 / bitrate=9674 / ratetol=1.0 / qcomp=0.60 / qpmin=10 / qpmax=51 / qpstep=4 / cplxblur=20.0 / qblur=0.5 / ip_ratio=1.40 / aq=1:1.00
  25. Language                                 : English
  26. Default                                  : No
  27. Forced                                   : No

  28. Audio
  29. ID                                       : 2
  30. Format                                   : DTS
  31. Format/Info                              : Digital Theater Systems
  32. Codec ID                                 : A_DTS
  33. Duration                                 : 2 h 59 min
  34. Bit rate mode                            : Constant
  35. Bit rate                                 : 768 kb/s
  36. Channel(s)                               : 6 channels
  37. Channel layout                           : C L R Ls Rs LFE
  38. Sampling rate                            : 48.0 kHz
  39. Frame rate                               : 93.750 FPS (512 SPF)
  40. Bit depth                                : 24 bits
  41. Compression mode                         : Lossy
  42. Stream size                              : 987 MiB (7%)
  43. Default                                  : Yes
  44. Forced                                   : No

  45. Text
  46. ID                                       : 3
  47. Format                                   : UTF-8
  48. Codec ID                                 : S_TEXT/UTF8
  49. Codec ID/Info                            : UTF-8 Plain Text
  50. Default                                  : Yes
  51. Forced                                   : No
复制代码






                                       
                                       

                                       
                                       
                                       




回复

使用道具 举报

懒得打字嘛,点击右侧快捷回复 【右侧内容,后台自定义】
您需要登录后才可以回帖 登录 | 立即加入

本版积分规则

Archiver|小黑屋| 蓝光电影网 |网站地图

Copyright © 2021 Comsenz Inc. Powered by 蓝光电影网

蓝光电影网

本站内容由用户自主分享和转载自互联网,转载目的在于传递更多信息,并不代表本网赞同其观点和对其真实性负责。

如有侵权、违反国家法律政策行为,请联系我们,我们会第一时间及时清除和处理!

举报反馈邮箱:[email protected]

快速回复 返回顶部 返回列表