找回密码

蓝光电影网

查看: 11|回复: 0

[剧情] 潜水艇/初恋潜水艇 Submarine.2010.1080p.BluRay.X264-AVCHD 6.62GB

[复制链接]
蓝光币
515
发表于 2020-11-4 11:23:51 | 显示全部楼层 |阅读模式


◎译  名 潜水艇/初恋潜水艇(台)/恋爱潜水(港)
◎片  名 Submarine
◎年  代 2010
◎产  地 英国,美国
◎类  别 剧情 / 笑剧
◎语  言 英语
◎上映日期 2010-09-12(多伦多电影节) / 2011-03-18(英国)
◎IMDb评分  7.3/10 from 84632 users
◎IMDb链接  https://www.imdb.com/title/tt1440292/
◎豆瓣评分 7.7/10 from 19979 users
◎豆瓣链接 https://movie.douban.com/subject/3743049/
◎片  长 97分钟
◎导  演 理查德·艾欧阿德 Richard Ayoade
◎编  剧 理查德·艾欧阿德 Richard Ayoade
◎主  演 克雷格·罗伯兹 Craig Roberts
       帕迪·康斯戴恩 Paddy Considine
       莎莉·霍金斯 Sally Hawkins
       诺亚·泰勒 Noah Taylor
       亚丝明·佩奇 Yasmin Paige
       戴伦·伊万斯 Darren Evans
       嘉玛·陈 Gemma Chan
       Lydia Fox
◎标  签 青春 | 英国电影 | 文艺 | 恋爱 | 长大 | 2011 | 笑剧 | 小清新
◎简  介


  十五岁的奥利弗(克雷格?罗伯兹 Craig Roberts 饰)坐在课堂里的时辰脑中总是布满各类空想,四周的一切对他来说都是普通中包含奇异的存在。在同学里他总是显得分歧群,他留意到同学祖娜(雅思敏?派吉 Yasmin Paige 饰)也是如此。祖娜在铁桥下约见奥利弗并拍下两人亲吻的照片以此来刺激前男友,奥利弗为此支出了被祖娜前男友经验的价格,而这却让两小我真正走在一路了。奥利弗的怙恃关系严重,眼下他又发现母亲和隔邻新搬来的格雷厄姆走的很近,他起头试图拯救自己的家庭。而祖娜的母亲正患脑瘤,奥利弗想要处理题目却兼顾乏术,和祖娜误解重重终极致使两人分手。最初他的怙恃重归于好,祖娜的母亲也康复。而他和祖娜将走向什么终局呢?
  1. Video
  2. ID                                       : 1
  3. Format                                   : AVC
  4. Format/Info                              : Advanced Video Codec
  5. Format profile                           : [email protected]
  6. Format settings                          : CABAC / 4 Ref Frames
  7. Format settings, CABAC                   : Yes
  8. Format settings, Reference frames        : 4 frames
  9. Codec ID                                 : V_MPEG4/ISO/AVC
  10. Duration                                 : 1 h 36 min
  11. Bit rate                                 : 8 916 kb/s
  12. Width                                    : 1 920 pixels
  13. Height                                   : 1 040 pixels
  14. Display aspect ratio                     : 1.85:1
  15. Frame rate mode                          : Constant
  16. Frame rate                               : 23.976 (23976/1000/189150) FPS
  17. Color space                              : YUV
  18. Chroma subsampling                       : 4:2:0
  19. Bit depth                                : 8 bits
  20. Scan type                                : Progressive
  21. Bits/(Pixel*Frame)                       : 0.186
  22. Stream size                              : 5.90 GiB (90%)
  23. Writing library                          : x264 core 116 r2019 9cc407d
  24. Encoding settings                        : cabac=1 / ref=4 / deblock=1:0:0 / analyse=0x3:0x133 / me=umh / subme=7 / psy=1 / psy_rd=1.00:0.00 / mixed_ref=1 / me_range=16 / chroma_me=1 / trellis=1 / 8x8dct=1 / cqm=0 / deadzone=21,11 / fast_pskip=0 / chroma_qp_offset=-2 / threads=12 / sliced_threads=0 / nr=0 / decimate=1 / interlaced=0 / bluray_compat=0 / constrained_intra=0 / bframes=3 / b_pyramid=2 / b_adapt=1 / b_bias=0 / direct=1 / weightb=1 / open_gop=0 / weightp=2 / keyint=250 / keyint_min=23 / scenecut=40 / intra_refresh=0 / rc_lookahead=40 / rc=2pass / mbtree=1 / bitrate=8916 / ratetol=1.0 / qcomp=0.60 / qpmin=0 / qpmax=69 / qpstep=4 / cplxblur=20.0 / qblur=0.5 / ip_ratio=1.40 / aq=1:1.00
  25. Language                                 : English
  26. Default                                  : Yes
  27. Forced                                   : No

  28. Audio
  29. ID                                       : 2
  30. Format                                   : DTS
  31. Format/Info                              : Digital Theater Systems
  32. Codec ID                                 : A_DTS
  33. Duration                                 : 1 h 36 min
  34. Bit rate mode                            : Constant
  35. Bit rate                                 : 768 kb/s
  36. Channel(s)                               : 6 channels
  37. Channel layout                           : C L R Ls Rs LFE
  38. Sampling rate                            : 48.0 kHz
  39. Frame rate                               : 93.750 FPS (512 SPF)
  40. Bit depth                                : 24 bits
  41. Compression mode                         : Lossy
  42. Stream size                              : 532 MiB (8%)
  43. Language                                 : English
  44. Default                                  : Yes
  45. Forced                                   : No
复制代码








                                       
                                       

                                       
                                       
                                       




回复

使用道具 举报

懒得打字嘛,点击右侧快捷回复 【右侧内容,后台自定义】
您需要登录后才可以回帖 登录 | 立即加入

本版积分规则

Archiver|小黑屋| 蓝光电影网 |网站地图

Copyright © 2021 Comsenz Inc. Powered by 蓝光电影网

蓝光电影网

本站内容由用户自主分享和转载自互联网,转载目的在于传递更多信息,并不代表本网赞同其观点和对其真实性负责。

如有侵权、违反国家法律政策行为,请联系我们,我们会第一时间及时清除和处理!

举报反馈邮箱:[email protected]

快速回复 返回顶部 返回列表