找回密码

蓝光电影网

查看: 23|回复: 0

[剧情] 比邻星/媽媽是個太空人(澳) Proxima.2019.FRENCH.1080p.WEB-DL.DD5.1.H264-NOGRP 4.06GB

[复制链接]
蓝光币
511
发表于 2021-8-20 01:11:29 | 显示全部楼层 |阅读模式


◎译  名 比邻星/媽媽是個太空人(澳)/星星知我心(台)
◎片  名 Proxima
◎年  代 2019
◎产  地 法国,德国
◎类  别 剧情
◎语  言 法语,英语,俄语,德语
◎上映日期 2019-09-07(多伦多电影节) / 2019-11-27(法国)
◎IMDb评分  6.4/10 from 3289 users
◎IMDb链接  https://www.imdb.com/title/tt7374926/
◎豆瓣评分 6.8/10 from 2157 users
◎豆瓣链接 https://movie.douban.com/subject/27133567/
◎片  长 107分钟
◎导  演 艾丽斯·威诺古尔 Alice Winocour
◎编  剧 艾丽斯·威诺古尔 Alice Winocour / 让-史蒂芬·布朗 Jean-Stéphane Bron
◎主  演 伊娃·格林 Eva Green
       马特·狄龙 Matt Dillon
       阿列克谢·法捷耶夫 Aleksey Fateev
       拉斯·艾丁格 Lars Eidinger
       桑德拉·惠勒 Sandra Hüller
       格莱戈尔·科林  Grégoire Colin
◎标  签 法国 | 女性 | 伊娃·格林 | 科幻 | 法国电影 | 2019 | 剧情 | EvaGreen
◎简  介


  威诺古尔暗示该片就是聚焦宇航员在去往太空履利用命之前的预备工作,“活动正式停止之前的预备工作对于宇航员来说是最难熬的一部分,由于你一旦到了太空中就万事俱备,而在此之前你要与支属们作别,还要为身材做充沛预备来顺应情况,是关于你若何将恐惧与疼痛安置于生命之上的概念。我们意图是将其形成一个超级女豪杰兼普通母亲的脚色,母亲这一脚色在其他影片里凡是都很弱,是时辰证实女性不但可所以一位母亲,还可以成为一位巨大的宇航员。”该故事基于威诺古尔本人同自己女儿的分手履历,伊娃·格林将会接管法国宇航员托马斯·佩斯凯的培训。
◎获奖情况
  第45届法国凯撒电影奖 ?(2020)
  最好女配角(提名) 伊娃·格林
  
  第44届多伦多国际电影节 ?(2019)
  站台奖(提名) 艾丽斯·威诺古尔
  
  第67届圣塞巴斯蒂安国际电影节 ?(2019)
  金贝壳奖(提名) 艾丽斯·威诺古尔
  评审团出格奖 艾丽斯·威诺古尔
  1. Video
  2. ID                                       : 1
  3. Format                                   : AVC
  4. Format/Info                              : Advanced Video Codec
  5. Format profile                           : [email protected]
  6. Format settings                          : CABAC / 4 Ref Frames
  7. Format settings, CABAC                   : Yes
  8. Format settings, Reference frames        : 4 frames
  9. Codec ID                                 : V_MPEG4/ISO/AVC
  10. Duration                                 : 1 h 47 min
  11. Bit rate                                 : 5 040 kb/s
  12. Width                                    : 1 916 pixels
  13. Height                                   : 1 036 pixels
  14. Display aspect ratio                     : 1.85:1
  15. Frame rate mode                          : Constant
  16. Frame rate                               : 24.000 FPS
  17. Color space                              : YUV
  18. Chroma subsampling                       : 4:2:0
  19. Bit depth                                : 8 bits
  20. Scan type                                : Progressive
  21. Bits/(Pixel*Frame)                       : 0.106
  22. Stream size                              : 3.78 GiB (93%)
  23. Language                                 : French
  24. Default                                  : Yes
  25. Forced                                   : No
  26. Color range                              : Limited
  27. Color primaries                          : BT.709
  28. Transfer characteristics                 : BT.709
  29. Matrix coefficients                      : BT.709
  30. Audio
  31. ID                                       : 2
  32. Format                                   : AC-3
  33. Format/Info                              : Audio Coding 3
  34. Commercial name                          : Dolby Digital
  35. Codec ID                                 : A_AC3
  36. Duration                                 : 1 h 47 min
  37. Bit rate mode                            : Constant
  38. Bit rate                                 : 384 kb/s
  39. Channel(s)                               : 6 channels
  40. Channel layout                           : L R C LFE Ls Rs
  41. Sampling rate                            : 48.0 kHz
  42. Frame rate                               : 31.250 FPS (1536 SPF)
  43. Compression mode                         : Lossy
  44. Stream size                              : 295 MiB (7%)
  45. Language                                 : French
  46. Service kind                             : Complete Main
  47. Default                                  : Yes
  48. Forced                                   : No
  49. Text
  50. ID                                       : 3
  51. Format                                   : UTF-8
  52. Codec ID                                 : S_TEXT/UTF8
  53. Codec ID/Info                            : UTF-8 Plain Text
  54. Duration                                 : 1 h 40 min
  55. Bit rate                                 : 37 b/s
  56. Count of elements                        : 948
  57. Stream size                              : 27.4 KiB (0%)
  58. Language                                 : English
  59. Default                                  : Yes
  60. Forced                                   : No
复制代码





                                       
                                       

                                       
                                       
                                       




回复

使用道具 举报

懒得打字嘛,点击右侧快捷回复 【右侧内容,后台自定义】
您需要登录后才可以回帖 登录 | 立即加入

本版积分规则

Archiver|小黑屋| 蓝光电影网 |网站地图

Copyright © 2021 Comsenz Inc. Powered by 蓝光电影网

蓝光电影网

本站内容由用户自主分享和转载自互联网,转载目的在于传递更多信息,并不代表本网赞同其观点和对其真实性负责。

如有侵权、违反国家法律政策行为,请联系我们,我们会第一时间及时清除和处理!

举报反馈邮箱:[email protected]

快速回复 返回顶部 返回列表