找回密码

蓝光电影网

查看: 23|回复: 0

[剧情] 摇滚梦 Starstruck.1982.1080p.AMZN.WEBRip.DD5.1.x264-NOGRP 9.29GB

[复制链接]
蓝光币
515
发表于 2021-8-20 01:11:38 | 显示全部楼层 |阅读模式


◎译  名 摇滚梦
◎片  名 Starstruck
◎年  代 1982
◎产  地 澳大利亚
◎类  别 剧情 / 笑剧 / 歌舞
◎语  言 英语
◎上映日期 1982-04-08
◎IMDb评分  7/10 from 927 users
◎IMDb链接  https://www.imdb.com/title/tt0084728/
◎豆瓣评分 6.6/10 from 37 users
◎豆瓣链接 https://movie.douban.com/subject/1306414/
◎片  长 105 分钟
◎导  演 吉莉安·阿姆斯特朗 Gillian Armstrong
◎主  演 乔·肯尼迪 Jo Kennedy
       杰弗里·拉什 Geoffrey Rush
       丹尼斯·米勒 Dennis Miller
       卡罗尔·伯恩斯 Carol Burns
       Camille Linden
       Ned Lander
       Mark Little
       Stuart Campbell
       马克斯·库伦 Max Cullen
       卡尔林·费尔法克斯 Kaarin Fairfax
       Pat Evison
       Lucky Grills
       Syd Heylen
       Melissa Jaffer
       Phil Judd
◎标  签 澳大利亚 | 摇滚 | 音乐 | 1980s | 澳大利亚电影 | 摇滚电影 | 歌舞 | rock
◎简  介


  暂无相关剧情先容
  1. Video
  2. ID                                       : 1
  3. Format                                   : AVC
  4. Format/Info                              : Advanced Video Codec
  5. Format profile                           : [email protected]
  6. Format settings                          : CABAC / 4 Ref Frames
  7. Format settings, CABAC                   : Yes
  8. Format settings, Reference frames        : 4 frames
  9. Codec ID                                 : V_MPEG4/ISO/AVC
  10. Duration                                 : 1 h 35 min
  11. Bit rate                                 : 13.5 Mb/s
  12. Width                                    : 1 920 pixels
  13. Height                                   : 1 080 pixels
  14. Display aspect ratio                     : 16:9
  15. Frame rate mode                          : Constant
  16. Frame rate                               : 23.976 (24000/1001/189150) FPS
  17. Color space                              : YUV
  18. Chroma subsampling                       : 4:2:0
  19. Bit depth                                : 8 bits
  20. Scan type                                : Progressive
  21. Bits/(Pixel*Frame)                       : 0.271
  22. Stream size                              : 8.99 GiB (97%)
  23. Default                                  : Yes
  24. Forced                                   : No
  25. Color range                              : Limited
  26. Color primaries                          : BT.709
  27. Transfer characteristics                 : BT.709
  28. Matrix coefficients                      : BT.709
  29. Audio
  30. ID                                       : 2
  31. Format                                   : AC-3
  32. Format/Info                              : Audio Coding 3
  33. Commercial name                          : Dolby Digital
  34. Codec ID                                 : A_AC3
  35. Duration                                 : 1 h 35 min
  36. Bit rate mode                            : Constant
  37. Bit rate                                 : 448 kb/s
  38. Channel(s)                               : 6 channels
  39. Channel layout                           : L R C LFE Ls Rs
  40. Sampling rate                            : 48.0 kHz
  41. Frame rate                               : 31.250 FPS (1536 SPF)
  42. Compression mode                         : Lossy
  43. Stream size                              : 306 MiB (3%)
  44. Language                                 : English
  45. Service kind                             : Complete Main
  46. Default                                  : Yes
  47. Forced                                   : No
  48. Text
  49. ID                                       : 3
  50. Format                                   : UTF-8
  51. Codec ID                                 : S_TEXT/UTF8
  52. Codec ID/Info                            : UTF-8 Plain Text
  53. Duration                                 : 1 h 34 min
  54. Bit rate                                 : 75 b/s
  55. Count of elements                        : 1648
  56. Stream size                              : 52.3 KiB (0%)
  57. Language                                 : English
  58. Default                                  : Yes
  59. Forced                                   : No
  60. Menu
  61. 00:00:00.000                             : :Program Start / Main Titles
  62. 00:01:57.826                             : :\'Gimme Love\'
  63. 00:05:45.929                             : :\'Temper Temper\'
  64. 00:10:46.563                             : :The Morning After
  65. 00:15:29.011                             : :\'Surfside Tango\'
  66. 00:18:05.334                             : :Star Quality
  67. 00:23:30.618                             : :Phone Calls
  68. 00:26:16.700                             : :Death Walk
  69. 00:30:29.536                             : :In The News
  70. 00:36:02.035                             : :\'Body And Soul\'
  71. 00:41:53.261                             : :Party\'s Over
  72. 00:44:46.893                             : :Rehearsal
  73. 00:48:33.494                             : :Before The Show
  74. 00:52:00.909                             : :\'I Want To Live In A House\'
  75. 00:56:26.258                             : :\'My Belief In You\'
  76. 01:00:46.226                             : :\'Tough\'
  77. 01:05:10.115                             : :Robbed
  78. 01:09:00.511                             : :\'It\'s Not Enough\'
  79. 01:13:41.834                             : :Christmas
  80. 01:16:44.308                             : :Ticket Scam
  81. 01:18:35.002                             : :\'Turnaround\'
  82. 01:22:26.108                             : :\'Monkey In Me\'
  83. 01:28:48.698                             : :\'Starstruck\'
  84. 01:32:48.188                             : :End Credits
复制代码






                                       
                                       

                                       
                                       
                                       




回复

使用道具 举报

懒得打字嘛,点击右侧快捷回复 【右侧内容,后台自定义】
您需要登录后才可以回帖 登录 | 立即加入

本版积分规则

Archiver|小黑屋| 蓝光电影网 |网站地图

Copyright © 2021 Comsenz Inc. Powered by 蓝光电影网

蓝光电影网

本站内容由用户自主分享和转载自互联网,转载目的在于传递更多信息,并不代表本网赞同其观点和对其真实性负责。

如有侵权、违反国家法律政策行为,请联系我们,我们会第一时间及时清除和处理!

举报反馈邮箱:[email protected]

快速回复 返回顶部 返回列表