找回密码

蓝光电影网

查看: 19|回复: 0

[剧情] 棒球之爱 Glove.2011.KOREAN.1080p.WEBRip.x264-VXT 2.76GB

[复制链接]
蓝光币
515
发表于 2021-8-20 01:11:50 | 显示全部楼层 |阅读模式


◎译  名 棒球之爱/G-LOVE
◎片  名 ???
◎年  代 2011
◎产  地 韩国
◎类  别 剧情 / 活动
◎语  言 韩语
◎上映日期 2011-01-27(韩国)
◎IMDb评分  6.9/10 from 280 users
◎IMDb链接  https://www.imdb.com/title/tt1832362/
◎豆瓣评分 7.8/10 from 1348 users
◎豆瓣链接 https://movie.douban.com/subject/5299006/
◎片  长 144分钟
◎导  演 康佑硕 Woo-Suk Kang
◎编  剧 申东益 Dong-ik Shin
◎主  演 郑在咏 Jae-yeong Jeong
       柳善 Seon Yu
       金彗星 Hye-sung Kim
       张基范 Ki-beom Jang
       吴熙俊 Hee-joon Oh
       张勇福 Jang Yong-bok
       金景龙 Geong-ryong Kim
       曹文义 Moon-ui Jo
       赵震雄 Cho Jin-woong
       陈庆 Jin Gyeong
       李玹雨 Hyun-Woo Lee
       宋英才 Song Young-jae
       琴东贤 Geum Dong-hyeon
       池一株 Il-joo Ji
       金善荷 Kim Seon-ha
       全国焕 Gook-hwan Jeon
       金美京 Mi-kyung Kim
       权恩秀 Eun-soo Kwon
◎标  签 韩国 | 励志 | 韩国电影 | 棒球 | 青春 | 郑在泳 | 2011 | 体育
◎简  介


  金尚男(郑在泳 饰)是韩国国内数一数二的棒球投手,持续三界MVP得主,可是他不竭惹上麻烦,比来又酒后用球棒攻击他人,在收集和媒体上激发了抗议与批评,球队高层也不再容忍他,将他临时逐出球队,下放到一家教会慈善黉舍,担任一支由听觉障碍队员们组成的棒球队的教练。掮客人哲秀将闷闷不乐的金尚男交给了黉舍方面的姜校监和罗教员(柳善 饰),把黉舍当做临时落脚地的金尚男对这只拼集出来的球队并无爱好,但耐不住罗教员的催促和孩子们的诚恳,亦为了报答哲秀久长以来的虔诚,决意帮助孩子们实现在高中棒球联赛中最少赢得一场角逐的愿望……
◎获奖情况
  第48届韩国电影大钟奖 ?(2011)
  最好新人男演员(提名) 张基范
  1. Video
  2. ID                                       : 1
  3. Format                                   : AVC
  4. Format/Info                              : Advanced Video Codec
  5. Format profile                           : [email protected]
  6. Format settings                          : CABAC / 4 Ref Frames
  7. Format settings, CABAC                   : Yes
  8. Format settings, Reference frames        : 4 frames
  9. Codec ID                                 : avc1
  10. Codec ID/Info                            : Advanced Video Coding
  11. Duration                                 : 2 h 24 min
  12. Bit rate                                 : 2 500 kb/s
  13. Width                                    : 1 920 pixels
  14. Height                                   : 816 pixels
  15. Display aspect ratio                     : 2.35:1
  16. Frame rate mode                          : Constant
  17. Frame rate                               : 23.976 (23976/1000/189150) FPS
  18. Color space                              : YUV
  19. Chroma subsampling                       : 4:2:0
  20. Bit depth                                : 8 bits
  21. Scan type                                : Progressive
  22. Bits/(Pixel*Frame)                       : 0.067
  23. Stream size                              : 2.53 GiB (92%)
  24. Writing library                          : x264 core 152 r2851M ba24899
  25. Encoding settings                        : cabac=1 / ref=4 / deblock=1:-1:-1 / analyse=0x3:0x113 / me=umh / subme=9 / psy=1 / psy_rd=1.00:0.15 / mixed_ref=1 / me_range=24 / chroma_me=1 / trellis=2 / 8x8dct=1 / cqm=0 / deadzone=21,11 / fast_pskip=1 / chroma_qp_offset=-3 / threads=16 / lookahead_threads=4 / sliced_threads=0 / nr=0 / decimate=1 / interlaced=0 / bluray_compat=0 / constrained_intra=0 / bframes=3 / b_pyramid=2 / b_adapt=2 / b_bias=0 / direct=3 / weightb=1 / open_gop=0 / weightp=2 / keyint=250 / keyint_min=25 / scenecut=40 / intra_refresh=0 / rc_lookahead=50 / rc=2pass / mbtree=1 / bitrate=2500 / ratetol=1.0 / qcomp=0.60 / qpmin=0 / qpmax=69 / qpstep=4 / cplxblur=20.0 / qblur=0.5 / vbv_maxrate=31250 / vbv_bufsize=31250 / nal_hrd=none / filler=0 / ip_ratio=1.40 / aq=3:1.00
  26. Encoded date                             : UTC 2020-09-23 13:47:18
  27. Tagged date                              : UTC 2020-09-23 13:47:18
  28. Codec configuration box                  : avcC
  29. Audio
  30. ID                                       : 2
  31. Format                                   : AAC LC
  32. Format/Info                              : Advanced Audio Codec Low Complexity
  33. Codec ID                                 : mp4a-40-2
  34. Duration                                 : 2 h 24 min
  35. Duration_LastFrame                       : -11 ms
  36. Bit rate mode                            : Constant
  37. Bit rate                                 : 224 kb/s
  38. Channel(s)                               : 6 channels
  39. Channel layout                           : C L R Ls Rs LFE
  40. Sampling rate                            : 48.0 kHz
  41. Frame rate                               : 46.875 FPS (1024 SPF)
  42. Compression mode                         : Lossy
  43. Stream size                              : 232 MiB (8%)
  44. Language                                 : Korean
  45. Default                                  : Yes
  46. Alternate group                          : 1
  47. Encoded date                             : UTC 2020-09-23 13:47:18
  48. Tagged date                              : UTC 2020-09-23 13:47:18
复制代码





                                       
                                       

                                       
                                       
                                       




回复

使用道具 举报

懒得打字嘛,点击右侧快捷回复 【右侧内容,后台自定义】
您需要登录后才可以回帖 登录 | 立即加入

本版积分规则

Archiver|小黑屋| 蓝光电影网 |网站地图

Copyright © 2021 Comsenz Inc. Powered by 蓝光电影网

蓝光电影网

本站内容由用户自主分享和转载自互联网,转载目的在于传递更多信息,并不代表本网赞同其观点和对其真实性负责。

如有侵权、违反国家法律政策行为,请联系我们,我们会第一时间及时清除和处理!

举报反馈邮箱:[email protected]

快速回复 返回顶部 返回列表