找回密码

蓝光电影网

查看: 33|回复: 0

[剧情] 纯真时代 Empire.of.Lust.2015.KOREAN.1080p.AMZN.WEBRip.DDP5.1.x264-tG1R0 6.57GB

[复制链接]
蓝光币
515
发表于 2021-8-20 01:12:21 | 显示全部楼层 |阅读模式


◎译  名 纯真时代/Empire of Lust/情欲王朝(台)/纯真年月
◎片  名 ??? ??
◎年  代 2015
◎产  地 韩国
◎类  别 剧情 / 恋爱 / 历史
◎语  言 韩语
◎上映日期 2015-03-05(韩国)
◎IMDb评分  5.9/10 from 363 users
◎IMDb链接  https://www.imdb.com/title/tt3544326/
◎豆瓣评分 5.9/10 from 4937 users
◎豆瓣链接 https://movie.douban.com/subject/25789453/
◎片  长 113分钟
◎导  演 安相勋 Sang-hoon Ahn
◎主  演 申河均 Ha-kyun Shin
       张赫 Hyuk Jang
       姜汉娜 Han-na Kang
       姜河那 Ha-neul Kang
       朴贞允 Jung-yoon Park
       朴俊英 Joon-yeong Park
       文英东 Young-dong Moon
       姜京宪 Kyeong-heon Kang
       池成媛 Seong-won Ji
       吴荷妮 Ha-nee Oh
       河智恩 Ha Ji-eun
       纪柱峰 Ju-bong Gi
       金多艺 Da-ye Kim
       韩旻 Min Han
◎标  签 韩国 | 情色 | 韩国电影 | 古装 | 历史 | 2015 | 恋爱 | 剧情
◎简  介


  本片以1398年发生执政鲜李氏王朝的"戊寅靖社"事务为布景,报告了三个汉子的愿望和野心。还有一位为了报复而接近男仆人公的妓女,却爱上仇人男仆人公。四小我将身心投入到犬色声马中,没法自拔…… 三个汉子更是沉醉在自己的天下中,在历史的洪流中谱写一幕幕血雨腥风……
  1. Video
  2. ID                                       : 1
  3. Format                                   : AVC
  4. Format/Info                              : Advanced Video Codec
  5. Format profile                           : [email protected]
  6. Format settings                          : CABAC / 4 Ref Frames
  7. Format settings, CABAC                   : Yes
  8. Format settings, Reference frames        : 4 frames
  9. Codec ID                                 : V_MPEG4/ISO/AVC
  10. Duration                                 : 1 h 53 min
  11. Bit rate mode                            : Constant
  12. Bit rate                                 : 7 658 kb/s
  13. Nominal bit rate                         : 10 000 kb/s
  14. Width                                    : 1 920 pixels
  15. Height                                   : 816 pixels
  16. Display aspect ratio                     : 2.35:1
  17. Frame rate mode                          : Constant
  18. Frame rate                               : 23.976 (24000/1001/189150) FPS
  19. Color space                              : YUV
  20. Chroma subsampling                       : 4:2:0
  21. Bit depth                                : 8 bits
  22. Scan type                                : Progressive
  23. Bits/(Pixel*Frame)                       : 0.204
  24. Stream size                              : 6.07 GiB (92%)
  25. Title                                    : Empire of Lust (2015) [Amazon US]
  26. Language                                 : Korean
  27. Default                                  : Yes
  28. Forced                                   : No
  29. Color range                              : Limited
  30. Color primaries                          : BT.709
  31. Transfer characteristics                 : BT.709
  32. Matrix coefficients                      : BT.709
  33. Audio
  34. ID                                       : 2
  35. Format                                   : E-AC-3
  36. Format/Info                              : Enhanced AC-3
  37. Commercial name                          : Dolby Digital Plus
  38. Codec ID                                 : A_EAC3
  39. Duration                                 : 1 h 53 min
  40. Bit rate mode                            : Constant
  41. Bit rate                                 : 640 kb/s
  42. Channel(s)                               : 6 channels
  43. Channel layout                           : L R C LFE Ls Rs
  44. Sampling rate                            : 48.0 kHz
  45. Frame rate                               : 31.250 FPS (1536 SPF)
  46. Compression mode                         : Lossy
  47. Stream size                              : 519 MiB (8%)
  48. Language                                 : Korean
  49. Service kind                             : Complete Main
  50. Default                                  : Yes
  51. Forced                                   : No
  52. Text
  53. ID                                       : 3
  54. Format                                   : UTF-8
  55. Codec ID                                 : S_TEXT/UTF8
  56. Codec ID/Info                            : UTF-8 Plain Text
  57. Duration                                 : 1 h 48 min
  58. Bit rate                                 : 42 b/s
  59. Count of elements                        : 1098
  60. Stream size                              : 33.7 KiB (0%)
  61. Language                                 : English
  62. Default                                  : Yes
  63. Forced                                   : No
复制代码






                                       
                                       

                                       
                                       
                                       




回复

使用道具 举报

懒得打字嘛,点击右侧快捷回复 【右侧内容,后台自定义】
您需要登录后才可以回帖 登录 | 立即加入

本版积分规则

Archiver|小黑屋| 蓝光电影网 |网站地图

Copyright © 2021 Comsenz Inc. Powered by 蓝光电影网

蓝光电影网

本站内容由用户自主分享和转载自互联网,转载目的在于传递更多信息,并不代表本网赞同其观点和对其真实性负责。

如有侵权、违反国家法律政策行为,请联系我们,我们会第一时间及时清除和处理!

举报反馈邮箱:[email protected]

快速回复 返回顶部 返回列表