找回密码

蓝光电影网

查看: 33|回复: 0

[剧情] 超重警官/条子超大条 Oversize.Cops.2017.THAI.1080p.NF.WEBRip.DDP5.1.x264-DEEP 3.12GB

[复制链接]
蓝光币
519
发表于 2021-8-20 01:12:32 | 显示全部楼层 |阅读模式


◎译  名 超重警官/条子超大条(台)/超磅刑警(港)
◎片  名 Oversize Cops
◎年  代 2017
◎产  地 泰国
◎类  别 剧情 / 笑剧 / 行动
◎语  言 泰语
◎上映日期 2017-11-02(泰国)
◎IMDb评分  6/10 from 136 users
◎IMDb链接  https://www.imdb.com/title/tt7547814/
◎豆瓣评分 5.9/10 from 708 users
◎豆瓣链接 https://movie.douban.com/subject/27011758/
◎片  长 100分钟
◎导  演 普万尼特·弗迪 Phuwanit Pholdee / 查农·英永 Chanon Yingyong
◎编  剧 普万尼特·弗迪 Phuwanit Pholdee
◎主  演 杰佳·亚宁 JeeJa Yanin
       颂裕·玛徒雷 Somyos Matures
◎标  签 笑剧 | 泰国 | 2017 | 行动 | 警匪 | 犯罪 | 恶搞 | 搞笑
◎简  介


  自从由于太胖抓不到抢匪而登上头条,“阿康”和他三个朋友就成了泰国警界的羞辱。这四个胖差人必须在三个月内抛弃肥肉,否则就会被惩办!当美丽的尊巴舞教练“小敏”加入以后,练习变得使人兴奋。但是,抢案延续发生,一台银交运钞车被抢后损失惨重,暴徒却没有留下任何线索。四位警探必须在塑身的同时侦察犯罪,减肥刻日快要,但犯案之谜却仍未解开。这几个超大条的家伙,要若何保住他们的饭碗呢?
  1. Video
  2. ID                                       : 1
  3. Format                                   : AVC
  4. Format/Info                              : Advanced Video Codec
  5. Format profile                           : [email protected]
  6. Format settings                          : CABAC / 3 Ref Frames
  7. Format settings, CABAC                   : Yes
  8. Format settings, Reference frames        : 3 frames
  9. Codec ID                                 : V_MPEG4/ISO/AVC
  10. Duration                                 : 1 h 40 min
  11. Bit rate mode                            : Variable
  12. Bit rate                                 : 3 830 kb/s
  13. Maximum bit rate                         : 5 745 kb/s
  14. Width                                    : 1 920 pixels
  15. Height                                   : 1 080 pixels
  16. Display aspect ratio                     : 16:9
  17. Frame rate mode                          : Constant
  18. Frame rate                               : 24.000 FPS
  19. Color space                              : YUV
  20. Chroma subsampling                       : 4:2:0
  21. Bit depth                                : 8 bits
  22. Scan type                                : Progressive
  23. Bits/(Pixel*Frame)                       : 0.077
  24. Stream size                              : 2.67 GiB (86%)
  25. Writing library                          : x264 core 148 r2715 7e75228
  26. Encoding settings                        : cabac=1 / ref=3 / deblock=1:0:0 / analyse=0x1:0x111 / me=umh / subme=10 / psy=1 / psy_rd=1.00:0.00 / mixed_ref=1 / me_range=24 / chroma_me=1 / trellis=2 / 8x8dct=0 / cqm=0 / deadzone=21,11 / fast_pskip=1 / chroma_qp_offset=-2 / threads=8 / lookahead_threads=1 / sliced_threads=0 / nr=0 / decimate=1 / interlaced=0 / bluray_compat=0 / stitchable=1 / constrained_intra=0 / bframes=2 / b_pyramid=0 / b_adapt=2 / b_bias=0 / direct=3 / weightb=1 / open_gop=0 / weightp=2 / keyint=48 / keyint_min=25 / scenecut=0 / intra_refresh=0 / rc_lookahead=48 / rc=2pass / mbtree=1 / bitrate=3830 / ratetol=1.0 / qcomp=0.50 / qpmin=6 / qpmax=51 / qpstep=4 / cplxblur=20.0 / qblur=0.5 / vbv_maxrate=5745 / vbv_bufsize=7660 / nal_hrd=vbr / filler=0 / ip_ratio=1.40 / aq=1:1.00
  27. Default                                  : Yes
  28. Forced                                   : No
  29. Audio
  30. ID                                       : 2
  31. Format                                   : E-AC-3
  32. Format/Info                              : Enhanced AC-3
  33. Commercial name                          : Dolby Digital Plus
  34. Codec ID                                 : A_EAC3
  35. Duration                                 : 1 h 40 min
  36. Bit rate mode                            : Constant
  37. Bit rate                                 : 640 kb/s
  38. Channel(s)                               : 6 channels
  39. Channel layout                           : L R C LFE Ls Rs
  40. Sampling rate                            : 48.0 kHz
  41. Frame rate                               : 31.250 FPS (1536 SPF)
  42. Compression mode                         : Lossy
  43. Stream size                              : 458 MiB (14%)
  44. Language                                 : Thai
  45. Service kind                             : Complete Main
  46. Default                                  : Yes
  47. Forced                                   : No
  48. Text #1
  49. ID                                       : 3
  50. Format                                   : UTF-8
  51. Codec ID                                 : S_TEXT/UTF8
  52. Codec ID/Info                            : UTF-8 Plain Text
  53. Duration                                 : 1 h 39 min
  54. Bit rate                                 : 34 b/s
  55. Count of elements                        : 901
  56. Stream size                              : 25.4 KiB (0%)
  57. Language                                 : English
  58. Default                                  : Yes
  59. Forced                                   : No
  60. Text #2
  61. ID                                       : 4
  62. Format                                   : UTF-8
  63. Codec ID                                 : S_TEXT/UTF8
  64. Codec ID/Info                            : UTF-8 Plain Text
  65. Duration                                 : 1 h 34 min
  66. Bit rate                                 : 113 b/s
  67. Count of elements                        : 1081
  68. Stream size                              : 78.6 KiB (0%)
  69. Title                                    : SDH
  70. Language                                 : Thai
  71. Default                                  : No
  72. Forced                                   : No
  73. Text #3
  74. ID                                       : 5
  75. Format                                   : UTF-8
  76. Codec ID                                 : S_TEXT/UTF8
  77. Codec ID/Info                            : UTF-8 Plain Text
  78. Duration                                 : 1 h 39 min
  79. Bit rate                                 : 31 b/s
  80. Count of elements                        : 904
  81. Stream size                              : 22.8 KiB (0%)
  82. Title                                    : Simplified
  83. Language                                 : Chinese
  84. Default                                  : No
  85. Forced                                   : No
  86. Text #4
  87. ID                                       : 6
  88. Format                                   : UTF-8
  89. Codec ID                                 : S_TEXT/UTF8
  90. Codec ID/Info                            : UTF-8 Plain Text
  91. Duration                                 : 1 h 39 min
  92. Bit rate                                 : 31 b/s
  93. Count of elements                        : 904
  94. Stream size                              : 23.2 KiB (0%)
  95. Title                                    : Traditional
  96. Language                                 : Chinese
  97. Default                                  : No
  98. Forced                                   : No
复制代码






                                       
                                       

                                       
                                       
                                       




回复

使用道具 举报

懒得打字嘛,点击右侧快捷回复 【右侧内容,后台自定义】
您需要登录后才可以回帖 登录 | 立即加入

本版积分规则

Archiver|小黑屋| 蓝光电影网 |网站地图

Copyright © 2021 Comsenz Inc. Powered by 蓝光电影网

蓝光电影网

本站内容由用户自主分享和转载自互联网,转载目的在于传递更多信息,并不代表本网赞同其观点和对其真实性负责。

如有侵权、违反国家法律政策行为,请联系我们,我们会第一时间及时清除和处理!

举报反馈邮箱:[email protected]

快速回复 返回顶部 返回列表