找回密码

蓝光电影网

查看: 35|回复: 0

[剧情] 泉 Saem.2017.KOREAN.1080p.NF.WEBRip.DDP2.0.x264-tG1R0 3.89GB

[复制链接]
蓝光币
511
发表于 2021-8-20 01:12:59 | 显示全部楼层 |阅读模式


◎译  名 泉/Saem
◎片  名 ?
◎年  代 2017
◎产  地 韩国
◎类  别 剧情
◎上映日期 2017-04-30(全州国际电影节)
◎IMDb链接  https://www.imdb.com/title/tt9293752/
◎豆瓣评分 /10 from 0 users
◎豆瓣链接 https://movie.douban.com/subject/27005280/
◎片  长 108分钟
◎主  演 柳善英 Sun-young Ryu
◎标  签 柳善永 | 韩国
◎简  介


  Dusang who suffers from prosopagnosia comes up to Seoul to look for his first love Saem. Three different women come across his path soon after he arrives. To Him, they all appear to be Saem.
  
  [18th Jeonju International Film Festival - Korean Competition]
  1. Video
  2. ID                                       : 1
  3. Format                                   : AVC
  4. Format/Info                              : Advanced Video Codec
  5. Format profile                           : [email protected]
  6. Format settings                          : CABAC / 3 Ref Frames
  7. Format settings, CABAC                   : Yes
  8. Format settings, Reference frames        : 3 frames
  9. Codec ID                                 : V_MPEG4/ISO/AVC
  10. Duration                                 : 1 h 46 min
  11. Bit rate mode                            : Variable
  12. Bit rate                                 : 5 110 kb/s
  13. Maximum bit rate                         : 7 665 kb/s
  14. Width                                    : 1 920 pixels
  15. Height                                   : 1 080 pixels
  16. Display aspect ratio                     : 16:9
  17. Frame rate mode                          : Constant
  18. Frame rate                               : 23.976 (24000/1001/189150) FPS
  19. Color space                              : YUV
  20. Chroma subsampling                       : 4:2:0
  21. Bit depth                                : 8 bits
  22. Scan type                                : Progressive
  23. Bits/(Pixel*Frame)                       : 0.103
  24. Stream size                              : 3.80 GiB (98%)
  25. Writing library                          : x264 core 148 r2722 1b0121b
  26. Encoding settings                        : cabac=1 / ref=3 / deblock=1:0:0 / analyse=0x1:0x111 / me=umh / subme=10 / psy=1 / psy_rd=1.00:0.00 / mixed_ref=1 / me_range=24 / chroma_me=1 / trellis=2 / 8x8dct=0 / cqm=0 / deadzone=21,11 / fast_pskip=1 / chroma_qp_offset=-2 / threads=8 / lookahead_threads=1 / sliced_threads=0 / nr=0 / decimate=1 / interlaced=0 / bluray_compat=0 / stitchable=1 / constrained_intra=0 / bframes=2 / b_pyramid=0 / b_adapt=2 / b_bias=0 / direct=3 / weightb=1 / open_gop=0 / weightp=2 / keyint=250 / keyint_min=23 / scenecut=0 / intra_refresh=0 / rc_lookahead=48 / rc=2pass / mbtree=1 / bitrate=5110 / ratetol=1.0 / qcomp=0.50 / qpmin=6 / qpmax=51 / qpstep=4 / cplxblur=20.0 / qblur=0.5 / vbv_maxrate=7665 / vbv_bufsize=10220 / nal_hrd=vbr / filler=0 / ip_ratio=1.40 / aq=1:1.00
  27. Language                                 : Korean
  28. Default                                  : Yes
  29. Forced                                   : No
  30. Audio
  31. ID                                       : 2
  32. Format                                   : E-AC-3
  33. Format/Info                              : Enhanced AC-3
  34. Commercial name                          : Dolby Digital Plus
  35. Codec ID                                 : A_EAC3
  36. Duration                                 : 1 h 46 min
  37. Bit rate mode                            : Constant
  38. Bit rate                                 : 128 kb/s
  39. Channel(s)                               : 2 channels
  40. Channel layout                           : L R
  41. Sampling rate                            : 48.0 kHz
  42. Frame rate                               : 31.250 FPS (1536 SPF)
  43. Compression mode                         : Lossy
  44. Stream size                              : 97.7 MiB (2%)
  45. Language                                 : Korean
  46. Service kind                             : Complete Main
  47. Default                                  : Yes
  48. Forced                                   : No
  49. Text #1
  50. ID                                       : 3
  51. Format                                   : UTF-8
  52. Codec ID                                 : S_TEXT/UTF8
  53. Codec ID/Info                            : UTF-8 Plain Text
  54. Duration                                 : 1 h 45 min
  55. Bit rate                                 : 44 b/s
  56. Count of elements                        : 1125
  57. Stream size                              : 34.7 KiB (0%)
  58. Language                                 : English
  59. Default                                  : Yes
  60. Forced                                   : No
  61. Text #2
  62. ID                                       : 4
  63. Format                                   : UTF-8
  64. Codec ID                                 : S_TEXT/UTF8
  65. Codec ID/Info                            : UTF-8 Plain Text
  66. Duration                                 : 1 h 33 min
  67. Bit rate                                 : 0 b/s
  68. Count of elements                        : 40
  69. Stream size                              : 483 Bytes (0%)
  70. Title                                    : FORCED
  71. Language                                 : Korean
  72. Default                                  : No
  73. Forced                                   : No
  74. Text #3
  75. ID                                       : 5
  76. Format                                   : UTF-8
  77. Codec ID                                 : S_TEXT/UTF8
  78. Codec ID/Info                            : UTF-8 Plain Text
  79. Duration                                 : 1 h 45 min
  80. Bit rate                                 : 80 b/s
  81. Count of elements                        : 2058
  82. Stream size                              : 62.1 KiB (0%)
  83. Title                                    : SDH
  84. Language                                 : Korean
  85. Default                                  : No
  86. Forced                                   : No
复制代码






                                       
                                       

                                       
                                       
                                       




回复

使用道具 举报

懒得打字嘛,点击右侧快捷回复 【右侧内容,后台自定义】
您需要登录后才可以回帖 登录 | 立即加入

本版积分规则

Archiver|小黑屋| 蓝光电影网 |网站地图

Copyright © 2021 Comsenz Inc. Powered by 蓝光电影网

蓝光电影网

本站内容由用户自主分享和转载自互联网,转载目的在于传递更多信息,并不代表本网赞同其观点和对其真实性负责。

如有侵权、违反国家法律政策行为,请联系我们,我们会第一时间及时清除和处理!

举报反馈邮箱:[email protected]

快速回复 返回顶部 返回列表