找回密码

蓝光电影网

查看: 65|回复: 0

[剧情] 我非笼鸟 Lost.Girls.and.Love.Hotels.2020.1080p.AMZN.WEBRip.DDP5.1.x264-NTG 6.58GB

[复制链接]
蓝光币
515
发表于 2021-8-20 01:13:27 | 显示全部楼层 |阅读模式


◎译  名 我非笼鸟/I Am Not a Bird
◎片  名 Lost Girls and Love Hotels
◎年  代 2020
◎产  地 美国,日本
◎类  别 剧情 / 惊悚
◎语  言 英语,日语
◎上映日期 2020-09-18(美国)
◎IMDb评分  4.6/10 from 521 users
◎IMDb链接  https://www.imdb.com/title/tt0920462/
◎豆瓣评分 4.8/10 from 66 users
◎豆瓣链接 https://movie.douban.com/subject/3628395/
◎导  演 威廉·奥尔森 William Olsson
◎主  演 亚历珊德拉·达达里奥 Alexandra Daddario
       卡里斯·范·侯登 Carice van Houten
       彼得·马克·肯德尔 Peter Mark Kendall
       凯特·伊斯顿 Kate Easton
       安德鲁·罗斯尼 Andrew Rothney
       平岳大 Takehiro Hira
       筒井真理子 Mariko Tsutsui
       黑泽明日香 Asuka Kurosawa
       神野三铃 Misuzu Kanno
       石田惠理 Eri Ishida
       骏河太郎 Tar? Suruga
       伊丽莎白·拉雷纳 Elisabeth Larena
◎标  签 亚历珊德拉·达达里奥 | 惊悚 | 2020 | 美国 | 美国电影 | 恋爱 | 剧情 | 日本电影
◎简  介


  亚历珊德拉·达达里奥([海滩游侠])加盟惊悚片[我非笼鸟](I Am Not a Bird,暂译),威廉·奥尔森执导。影片按照凯瑟琳·哈格拉汗所著小说《失落女孩与情人酒店》改编。故事围绕在东京买醉快乐的姑娘玛格丽特展开,其与日本黑帮小混混Kazu坠入爱河,而两人的风骚佳话,则触发连续串危机事务。WME Global负责影片刊行。
  1. Video
  2. ID                                       : 1
  3. Format                                   : AVC
  4. Format/Info                              : Advanced Video Codec
  5. Format profile                           : [email protected]
  6. Format settings                          : CABAC / 4 Ref Frames
  7. Format settings, CABAC                   : Yes
  8. Format settings, Reference frames        : 4 frames
  9. Codec ID                                 : V_MPEG4/ISO/AVC
  10. Duration                                 : 1 h 37 min
  11. Bit rate mode                            : Constant
  12. Bit rate                                 : 9 051 kb/s
  13. Nominal bit rate                         : 10 000 kb/s
  14. Width                                    : 1 920 pixels
  15. Height                                   : 1 040 pixels
  16. Display aspect ratio                     : 1.85:1
  17. Frame rate mode                          : Constant
  18. Frame rate                               : 23.976 (24000/1001/189150) FPS
  19. Color space                              : YUV
  20. Chroma subsampling                       : 4:2:0
  21. Bit depth                                : 8 bits
  22. Scan type                                : Progressive
  23. Bits/(Pixel*Frame)                       : 0.189
  24. Stream size                              : 6.14 GiB (93%)
  25. Default                                  : Yes
  26. Forced                                   : No
  27. Color range                              : Limited
  28. Color primaries                          : BT.709
  29. Transfer characteristics                 : BT.709
  30. Matrix coefficients                      : BT.709
  31. Audio
  32. ID                                       : 2
  33. Format                                   : E-AC-3
  34. Format/Info                              : Enhanced AC-3
  35. Commercial name                          : Dolby Digital Plus
  36. Codec ID                                 : A_EAC3
  37. Duration                                 : 1 h 37 min
  38. Bit rate mode                            : Constant
  39. Bit rate                                 : 640 kb/s
  40. Channel(s)                               : 6 channels
  41. Channel layout                           : L R C LFE Ls Rs
  42. Sampling rate                            : 48.0 kHz
  43. Frame rate                               : 31.250 FPS (1536 SPF)
  44. Compression mode                         : Lossy
  45. Stream size                              : 445 MiB (7%)
  46. Language                                 : English
  47. Service kind                             : Complete Main
  48. Default                                  : Yes
  49. Forced                                   : No
  50. Text #1
  51. ID                                       : 3
  52. Format                                   : UTF-8
  53. Codec ID                                 : S_TEXT/UTF8
  54. Codec ID/Info                            : UTF-8 Plain Text
  55. Duration                                 : 1 h 29 min
  56. Bit rate                                 : 21 b/s
  57. Count of elements                        : 607
  58. Stream size                              : 13.9 KiB (0%)
  59. Language                                 : English
  60. Default                                  : No
  61. Forced                                   : No
  62. Text #2
  63. ID                                       : 4
  64. Format                                   : UTF-8
  65. Codec ID                                 : S_TEXT/UTF8
  66. Codec ID/Info                            : UTF-8 Plain Text
  67. Duration                                 : 1 h 29 min
  68. Bit rate                                 : 23 b/s
  69. Count of elements                        : 662
  70. Stream size                              : 15.6 KiB (0%)
  71. Title                                    : SDH
  72. Language                                 : English
  73. Default                                  : No
  74. Forced                                   : No
复制代码






                                       
                                       

                                       
                                       
                                       




回复

使用道具 举报

懒得打字嘛,点击右侧快捷回复 【右侧内容,后台自定义】
您需要登录后才可以回帖 登录 | 立即加入

本版积分规则

Archiver|小黑屋| 蓝光电影网 |网站地图

Copyright © 2021 Comsenz Inc. Powered by 蓝光电影网

蓝光电影网

本站内容由用户自主分享和转载自互联网,转载目的在于传递更多信息,并不代表本网赞同其观点和对其真实性负责。

如有侵权、违反国家法律政策行为,请联系我们,我们会第一时间及时清除和处理!

举报反馈邮箱:[email protected]

快速回复 返回顶部 返回列表