找回密码

蓝光电影网

查看: 53|回复: 0

[剧情] 眠狂四郎胜负 Sleepy.Eyes.of.Death.Sword.of.Adventure.1964.JAPANESE.1080p.WEBRip.x264-VXT 1.57GB

[复制链接]
蓝光币
515
发表于 2021-8-20 01:13:53 | 显示全部楼层 |阅读模式


◎译  名 眠狂四郎胜败/Adventures of Kyoshiro Nemuri/Nemuri Kyoshiro 2: Sh?bu
◎片  名 眠狂四郎勝負
◎年  代 1964
◎产  地 日本
◎类  别 剧情
◎语  言 日语
◎上映日期 1964-01-09(日本)
◎IMDb评分  7.1/10 from 198 users
◎IMDb链接  https://www.imdb.com/title/tt0148935/
◎豆瓣评分 7.6/10 from 113 users
◎豆瓣链接 https://movie.douban.com/subject/3268348/
◎片  长 83分钟
◎导  演 三隅研次 Kenji Misumi
◎编  剧 柴田炼三郎 Renzabur? Shibata / 星川清司 Seiji Hoshikawa
◎主  演 市川雷藏 Raiz? Ichikawa
       藤川准 Jun Fujikawa
       藤村志保 Shiho Fujimura
       滨田优子 Yuko Hamada
       原圣四郎 Seishir? Hara
       堀北幸夫 Yukio Horikita
       岩田正 Tadashi Iwata
       加藤嘉 Yoshi Kat?
       菊野昌代志 Masayoshi Kikuno
       木村元 Gen Kimura
       久保菜穗子 Naoko Kubo
       南条新太郎 Shintar? Nanj?
       高田美和 Miwa Takada
       玉置一惠 Kazue Tamaki
◎标  签 三隅研次 | 日本 | 日本电影 | 市川雷藏 | 军人 | 眠狂系列 | 行动 | 柴田錬三郎
◎简  介


  愛宕神社の境内、狂四郎は赤座軍兵衛と名乗る侍の手から老人を救った。一向に風采のあがらないその老人が朝比奈という勘定推行の職にある男と聞いて狂四郎は興味を唆られた。狂四郎の耳には幾つかの興味ある事実が入った。家斉の息女高姫は堀家に嫁ぎながら、早くから夫を失い奔放で驕慢な生活をしていること、そして、用人主膳は札差、米問屋などに賄賂とひきかえに朝比奈の抹殺を約していること。又赤座も朝比奈を狙っていること。等々。ある日、遊楽帰りの高姫に出会った狂四郎は、主膳が手練の殺人者をくり出す事を知りながら、小気味よいいたずらっけを楽しんでいた。よりすぐりの殺人者が揃った。赤座、増子、榊原、海老名それに、キリスト教の布教に囚われている夫を救うため、主膳の膝下にある采女が加わっていた。動機も武術も異る五人は、狂四郎の身辺に风险を加えようと立ち廻った。ある日狂四郎の前にあらわれた采女の妖しい魅力にひきつけられて居酒屋ののれんをくぐると、不覚にも高姫の罠にかかり、両手を縛られ、高姫の褥の傍に据えられた。動けぬ狂四郎を前に、手をかえ品をかえてせまってくる殺人者の中を、生きぬけた狂四郎に、全てを失敗した主膳は、狂四郎と柳生但馬守との御前試合を計った。冷い眼をすえる高姫の前で、見事狂四郎は相手の胸をついた。敗北を認める高姫の口から、思わず游勇狂四郎を慕う言葉がもれた。が、なをもあきらめない主膳は、采女を囮りに狂四郎を狙っていた。殺気をはらむ武蔵野の枯野原を、対決の時は刻一刻と迫まっていった。
  1. Video
  2. ID                                       : 1
  3. Format                                   : AVC
  4. Format/Info                              : Advanced Video Codec
  5. Format profile                           : [email protected]
  6. Format settings                          : CABAC / 4 Ref Frames
  7. Format settings, CABAC                   : Yes
  8. Format settings, Reference frames        : 4 frames
  9. Codec ID                                 : avc1
  10. Codec ID/Info                            : Advanced Video Coding
  11. Duration                                 : 1 h 22 min
  12. Bit rate                                 : 2 500 kb/s
  13. Width                                    : 1 920 pixels
  14. Height                                   : 816 pixels
  15. Display aspect ratio                     : 2.35:1
  16. Frame rate mode                          : Constant
  17. Frame rate                               : 30.000 FPS
  18. Color space                              : YUV
  19. Chroma subsampling                       : 4:2:0
  20. Bit depth                                : 8 bits
  21. Scan type                                : Progressive
  22. Bits/(Pixel*Frame)                       : 0.053
  23. Stream size                              : 1.44 GiB (91%)
  24. Writing library                          : x264 core 152 r2851M ba24899
  25. Encoding settings                        : cabac=1 / ref=4 / deblock=1:-1:-1 / analyse=0x3:0x113 / me=umh / subme=9 / psy=1 / psy_rd=1.00:0.15 / mixed_ref=1 / me_range=24 / chroma_me=1 / trellis=2 / 8x8dct=1 / cqm=0 / deadzone=21,11 / fast_pskip=1 / chroma_qp_offset=-3 / threads=16 / lookahead_threads=4 / sliced_threads=0 / nr=0 / decimate=1 / interlaced=0 / bluray_compat=0 / constrained_intra=0 / bframes=3 / b_pyramid=2 / b_adapt=2 / b_bias=0 / direct=3 / weightb=1 / open_gop=0 / weightp=2 / keyint=250 / keyint_min=25 / scenecut=40 / intra_refresh=0 / rc_lookahead=50 / rc=2pass / mbtree=1 / bitrate=2500 / ratetol=1.0 / qcomp=0.60 / qpmin=0 / qpmax=69 / qpstep=4 / cplxblur=20.0 / qblur=0.5 / vbv_maxrate=31250 / vbv_bufsize=31250 / nal_hrd=none / filler=0 / ip_ratio=1.40 / aq=3:1.00
  26. Encoded date                             : UTC 2020-09-27 18:23:13
  27. Tagged date                              : UTC 2020-09-27 18:23:13
  28. Codec configuration box                  : avcC
  29. Audio
  30. ID                                       : 2
  31. Format                                   : AAC LC
  32. Format/Info                              : Advanced Audio Codec Low Complexity
  33. Codec ID                                 : mp4a-40-2
  34. Duration                                 : 1 h 22 min
  35. Duration_LastFrame                       : -11 ms
  36. Bit rate mode                            : Constant
  37. Bit rate                                 : 224 kb/s
  38. Channel(s)                               : 2 channels
  39. Channel layout                           : L R
  40. Sampling rate                            : 48.0 kHz
  41. Frame rate                               : 46.875 FPS (1024 SPF)
  42. Compression mode                         : Lossy
  43. Stream size                              : 132 MiB (8%)
  44. Language                                 : Japanese
  45. Default                                  : Yes
  46. Alternate group                          : 1
  47. Encoded date                             : UTC 2020-09-27 18:23:13
  48. Tagged date                              : UTC 2020-09-27 18:23:13
复制代码





                                       
                                       

                                       
                                       
                                       




回复

使用道具 举报

懒得打字嘛,点击右侧快捷回复 【右侧内容,后台自定义】
您需要登录后才可以回帖 登录 | 立即加入

本版积分规则

Archiver|小黑屋| 蓝光电影网 |网站地图

Copyright © 2021 Comsenz Inc. Powered by 蓝光电影网

蓝光电影网

本站内容由用户自主分享和转载自互联网,转载目的在于传递更多信息,并不代表本网赞同其观点和对其真实性负责。

如有侵权、违反国家法律政策行为,请联系我们,我们会第一时间及时清除和处理!

举报反馈邮箱:[email protected]

快速回复 返回顶部 返回列表