找回密码

蓝光电影网

查看: 51|回复: 0

[剧情] 眠狂四郎无赖控:魔性之肌 Sleepy.Eyes.of.Death.Trail.of.Traps.1967.JAPANESE.1080p.WEBRip.x264-VXT 1.67GB

[复制链接]
蓝光币
519
发表于 2021-8-20 01:14:17 | 显示全部楼层 |阅读模式


◎译  名 眠狂四郎无赖控:魔性之肌/A Trail of Traps/Nemuri Ky?shir? burai-hikae: Mash? no hada/Sleepy Eyes of Death: A Trail of Traps
◎片  名 眠狂四郎無頼控 魔性の肌
◎年  代 1967
◎产  地 日本
◎类  别 剧情 / 行动
◎语  言 日语
◎上映日期 1967-07-15(日本)
◎IMDb评分  7.1/10 from 91 users
◎IMDb链接  https://www.imdb.com/title/tt0148930/
◎豆瓣评分 /10 from 0 users
◎豆瓣链接 https://movie.douban.com/subject/3302548/
◎片  长 88分钟
◎导  演 池广一夫 Kazuo Ikehiro
◎编  剧 柴田炼三郎 Renzabur? Shibata / 高岩肇 Hajime Takaiwa
◎主  演 市川雷藏 Raiz? Ichikawa
       金子信雄 Nobuo Kaneko
       鳄渊晴子 Haruko Wanibuchi
       成田三树夫 Mikio Narita
       久保菜穗子 Naoko Kubo
       伊达三郎 Saburo Date
       远藤太津朗 Tatsuo End?
       長谷川待子 Machiko Hasegawa
       平泉成 Sei Hiraizumi
       稻叶义男 Yoshio Inaba
       渚真弓 Mayumi Nagisa
◎标  签 日本电影 | 日本 | 池广一夫 | 市川雷藏 | 眠狂四郎 | 池広一夫 | 市川雷蔵 | 1967
◎简  介


  第九作
  
  眠狂四郎(市川雷蔵)は、闕所物推行?朝比奈修理亮(金子信雄)から京都御所へ運ぶ献上品の警護を懇願されたが、それを拒否する。だが、狂四郎は余命いくばくもない姉が京都の尼寺にいることを聞きつけ、京都へと向かった。一方、江戸を旅立った献上品警護の一行は、三枝右近(成田三樹夫)を首領とする隠れキリシタンの一派?黒指党の襲撃を受けた。彼らが宝贝と崇める南蛮渡来の純金のクルスを奪還するためであった。さらに、黒指党は二人の女を使って狂四郎を狙う!
  1. Video
  2. ID                                       : 1
  3. Format                                   : AVC
  4. Format/Info                              : Advanced Video Codec
  5. Format profile                           : [email protected]
  6. Format settings                          : CABAC / 4 Ref Frames
  7. Format settings, CABAC                   : Yes
  8. Format settings, Reference frames        : 4 frames
  9. Codec ID                                 : avc1
  10. Codec ID/Info                            : Advanced Video Coding
  11. Duration                                 : 1 h 27 min
  12. Bit rate                                 : 2 500 kb/s
  13. Width                                    : 1 920 pixels
  14. Height                                   : 812 pixels
  15. Display aspect ratio                     : 2.35:1
  16. Frame rate mode                          : Constant
  17. Frame rate                               : 30.000 FPS
  18. Color space                              : YUV
  19. Chroma subsampling                       : 4:2:0
  20. Bit depth                                : 8 bits
  21. Scan type                                : Progressive
  22. Bits/(Pixel*Frame)                       : 0.053
  23. Stream size                              : 1.52 GiB (91%)
  24. Writing library                          : x264 core 152 r2851M ba24899
  25. Encoding settings                        : cabac=1 / ref=4 / deblock=1:-1:-1 / analyse=0x3:0x113 / me=umh / subme=9 / psy=1 / psy_rd=1.00:0.15 / mixed_ref=1 / me_range=24 / chroma_me=1 / trellis=2 / 8x8dct=1 / cqm=0 / deadzone=21,11 / fast_pskip=1 / chroma_qp_offset=-3 / threads=16 / lookahead_threads=4 / sliced_threads=0 / nr=0 / decimate=1 / interlaced=0 / bluray_compat=0 / constrained_intra=0 / bframes=3 / b_pyramid=2 / b_adapt=2 / b_bias=0 / direct=3 / weightb=1 / open_gop=0 / weightp=2 / keyint=250 / keyint_min=25 / scenecut=40 / intra_refresh=0 / rc_lookahead=50 / rc=2pass / mbtree=1 / bitrate=2500 / ratetol=1.0 / qcomp=0.60 / qpmin=0 / qpmax=69 / qpstep=4 / cplxblur=20.0 / qblur=0.5 / vbv_maxrate=31250 / vbv_bufsize=31250 / nal_hrd=none / filler=0 / ip_ratio=1.40 / aq=3:1.00
  26. Encoded date                             : UTC 2020-09-27 19:05:47
  27. Tagged date                              : UTC 2020-09-27 19:05:47
  28. Codec configuration box                  : avcC
  29. Audio
  30. ID                                       : 2
  31. Format                                   : AAC LC
  32. Format/Info                              : Advanced Audio Codec Low Complexity
  33. Codec ID                                 : mp4a-40-2
  34. Duration                                 : 1 h 27 min
  35. Duration_LastFrame                       : -11 ms
  36. Bit rate mode                            : Constant
  37. Bit rate                                 : 224 kb/s
  38. Channel(s)                               : 2 channels
  39. Channel layout                           : L R
  40. Sampling rate                            : 48.0 kHz
  41. Frame rate                               : 46.875 FPS (1024 SPF)
  42. Compression mode                         : Lossy
  43. Stream size                              : 140 MiB (8%)
  44. Language                                 : Japanese
  45. Default                                  : Yes
  46. Alternate group                          : 1
  47. Encoded date                             : UTC 2020-09-27 19:05:47
  48. Tagged date                              : UTC 2020-09-27 19:05:47
复制代码






                                       
                                       

                                       
                                       
                                       




回复

使用道具 举报

懒得打字嘛,点击右侧快捷回复 【右侧内容,后台自定义】
您需要登录后才可以回帖 登录 | 立即加入

本版积分规则

Archiver|小黑屋| 蓝光电影网 |网站地图

Copyright © 2021 Comsenz Inc. Powered by 蓝光电影网

蓝光电影网

本站内容由用户自主分享和转载自互联网,转载目的在于传递更多信息,并不代表本网赞同其观点和对其真实性负责。

如有侵权、违反国家法律政策行为,请联系我们,我们会第一时间及时清除和处理!

举报反馈邮箱:[email protected]

快速回复 返回顶部 返回列表