找回密码

蓝光电影网

查看: 23|回复: 0

[剧情] 食人之饥 Ravenous.2017.FRENCH.1080p.NF.WEBRip.DD5.1.x264-NTG 4.95GB

[复制链接]
蓝光币
515
发表于 2021-8-20 01:16:08 | 显示全部楼层 |阅读模式


◎译  名 食人之饥/Ravenous
◎片  名 Les Affamés
◎年  代 2017
◎产  地 加拿大
◎类  别 剧情 / 可骇
◎语  言 法语
◎上映日期 2018-03-02(德国)
◎IMDb评分  5.9/10 from 7698 users
◎IMDb链接  https://www.imdb.com/title/tt6243140/
◎豆瓣评分 5.4/10 from 968 users
◎豆瓣链接 https://movie.douban.com/subject/26966538/
◎片  长 104分钟(网飞版)
◎导  演 罗宾·奥贝尔 Robin Aubert
◎编  剧 罗宾·奥贝尔 Robin Aubert
◎主  演 马克-安德烈·格隆丁 Marc-André Grondin
       莫妮亚·肖克里 Monia Chokri
       爱德华·特伦布莱·格雷尼尔 édouard Tremblay-Grenier
◎标  签 丧尸 | 惊悚 | 加拿大 | 可骇 | 剧情 | 2017 | 活死人 | 惊悚&灾难&冒险
◎简  介


  In a small, remote village in upstate Quebec, things have changed. Locals are not the same anymore - their bodies are breaking down and they developed an outlandish attraction for flesh.
◎获奖情况
  第42届多伦多国际电影节 ?(2017)
  最好加拿大电影 罗宾·奥贝尔
  1. Video
  2. ID                                       : 1
  3. Format                                   : AVC
  4. Format/Info                              : Advanced Video Codec
  5. Format profile                           : [email protected]
  6. Format settings                          : CABAC / 3 Ref Frames
  7. Format settings, CABAC                   : Yes
  8. Format settings, Reference frames        : 3 frames
  9. Codec ID                                 : V_MPEG4/ISO/AVC
  10. Duration                                 : 1 h 43 min
  11. Bit rate mode                            : Variable
  12. Bit rate                                 : 6 490 kb/s
  13. Maximum bit rate                         : 9 735 kb/s
  14. Width                                    : 1 920 pixels
  15. Height                                   : 1 080 pixels
  16. Display aspect ratio                     : 16:9
  17. Frame rate mode                          : Constant
  18. Frame rate                               : 23.976 (24000/1001/189150) FPS
  19. Color space                              : YUV
  20. Chroma subsampling                       : 4:2:0
  21. Bit depth                                : 8 bits
  22. Scan type                                : Progressive
  23. Bits/(Pixel*Frame)                       : 0.131
  24. Stream size                              : 4.67 GiB (94%)
  25. Writing library                          : x264 core 148 r2714 2daf636
  26. Encoding settings                        : cabac=1 / ref=3 / deblock=1:0:0 / analyse=0x1:0x111 / me=umh / subme=10 / psy=1 / psy_rd=1.00:0.00 / mixed_ref=1 / me_range=24 / chroma_me=1 / trellis=2 / 8x8dct=0 / cqm=0 / deadzone=21,11 / fast_pskip=1 / chroma_qp_offset=-2 / threads=6 / lookahead_threads=1 / sliced_threads=0 / nr=0 / decimate=1 / interlaced=0 / bluray_compat=0 / stitchable=1 / constrained_intra=0 / bframes=2 / b_pyramid=0 / b_adapt=2 / b_bias=0 / direct=3 / weightb=1 / open_gop=0 / weightp=2 / keyint=48 / keyint_min=25 / scenecut=0 / intra_refresh=0 / rc_lookahead=48 / rc=2pass / mbtree=1 / bitrate=6490 / ratetol=1.0 / qcomp=0.50 / qpmin=6 / qpmax=51 / qpstep=4 / cplxblur=20.0 / qblur=0.5 / vbv_maxrate=9735 / vbv_bufsize=12980 / nal_hrd=vbr / filler=0 / ip_ratio=1.40 / aq=1:1.00
  27. Default                                  : Yes
  28. Forced                                   : No
  29. Audio
  30. ID                                       : 2
  31. Format                                   : AC-3
  32. Format/Info                              : Audio Coding 3
  33. Commercial name                          : Dolby Digital
  34. Codec ID                                 : A_AC3
  35. Duration                                 : 1 h 43 min
  36. Bit rate mode                            : Constant
  37. Bit rate                                 : 384 kb/s
  38. Channel(s)                               : 6 channels
  39. Channel layout                           : L R C LFE Ls Rs
  40. Sampling rate                            : 48.0 kHz
  41. Frame rate                               : 31.250 FPS (1536 SPF)
  42. Compression mode                         : Lossy
  43. Stream size                              : 285 MiB (6%)
  44. Language                                 : French
  45. Service kind                             : Complete Main
  46. Default                                  : Yes
  47. Forced                                   : No
  48. Text #1
  49. ID                                       : 3
  50. Format                                   : UTF-8
  51. Codec ID                                 : S_TEXT/UTF8
  52. Codec ID/Info                            : UTF-8 Plain Text
  53. Duration                                 : 1 h 34 min
  54. Bit rate                                 : 14 b/s
  55. Count of elements                        : 367
  56. Stream size                              : 9.70 KiB (0%)
  57. Language                                 : English
  58. Default                                  : Yes
  59. Forced                                   : No
  60. Text #2
  61. ID                                       : 4
  62. Format                                   : UTF-8
  63. Codec ID                                 : S_TEXT/UTF8
  64. Codec ID/Info                            : UTF-8 Plain Text
  65. Duration                                 : 1 h 35 min
  66. Bit rate                                 : 24 b/s
  67. Count of elements                        : 370
  68. Stream size                              : 17.4 KiB (0%)
  69. Language                                 : Arabic
  70. Default                                  : No
  71. Forced                                   : No
  72. Text #3
  73. ID                                       : 5
  74. Format                                   : UTF-8
  75. Codec ID                                 : S_TEXT/UTF8
  76. Codec ID/Info                            : UTF-8 Plain Text
  77. Duration                                 : 1 h 35 min
  78. Bit rate                                 : 14 b/s
  79. Count of elements                        : 370
  80. Stream size                              : 9.91 KiB (0%)
  81. Language                                 : Danish
  82. Default                                  : No
  83. Forced                                   : No
  84. Text #4
  85. ID                                       : 6
  86. Format                                   : UTF-8
  87. Codec ID                                 : S_TEXT/UTF8
  88. Codec ID/Info                            : UTF-8 Plain Text
  89. Duration                                 : 1 h 35 min
  90. Bit rate                                 : 15 b/s
  91. Count of elements                        : 370
  92. Stream size                              : 10.8 KiB (0%)
  93. Language                                 : German
  94. Default                                  : No
  95. Forced                                   : No
  96. Text #5
  97. ID                                       : 7
  98. Format                                   : UTF-8
  99. Codec ID                                 : S_TEXT/UTF8
  100. Codec ID/Info                            : UTF-8 Plain Text
  101. Duration                                 : 1 h 35 min
  102. Bit rate                                 : 25 b/s
  103. Count of elements                        : 370
  104. Stream size                              : 17.9 KiB (0%)
  105. Language                                 : Greek
  106. Default                                  : No
  107. Forced                                   : No
  108. Text #6
  109. ID                                       : 8
  110. Format                                   : UTF-8
  111. Codec ID                                 : S_TEXT/UTF8
  112. Codec ID/Info                            : UTF-8 Plain Text
  113. Duration                                 : 1 h 35 min
  114. Bit rate                                 : 13 b/s
  115. Count of elements                        : 370
  116. Stream size                              : 9.77 KiB (0%)
  117. Language                                 : Spanish
  118. Default                                  : No
  119. Forced                                   : No
  120. Text #7
  121. ID                                       : 9
  122. Format                                   : UTF-8
  123. Codec ID                                 : S_TEXT/UTF8
  124. Codec ID/Info                            : UTF-8 Plain Text
  125. Duration                                 : 1 h 35 min
  126. Bit rate                                 : 14 b/s
  127. Count of elements                        : 369
  128. Stream size                              : 10.1 KiB (0%)
  129. Language                                 : Finnish
  130. Default                                  : No
  131. Forced                                   : No
  132. Text #8
  133. ID                                       : 10
  134. Format                                   : UTF-8
  135. Codec ID                                 : S_TEXT/UTF8
  136. Codec ID/Info                            : UTF-8 Plain Text
  137. Duration                                 : 1 h 34 min
  138. Bit rate                                 : 20 b/s
  139. Count of elements                        : 396
  140. Stream size                              : 13.9 KiB (0%)
  141. Title                                    : Canadian
  142. Language                                 : French
  143. Default                                  : No
  144. Forced                                   : No
  145. Text #9
  146. ID                                       : 11
  147. Format                                   : UTF-8
  148. Codec ID                                 : S_TEXT/UTF8
  149. Codec ID/Info                            : UTF-8 Plain Text
  150. Duration                                 : 1 h 34 min
  151. Bit rate                                 : 25 b/s
  152. Count of elements                        : 554
  153. Stream size                              : 17.8 KiB (0%)
  154. Title                                    : Canadian SDH
  155. Language                                 : French
  156. Default                                  : No
  157. Forced                                   : No
  158. Text #10
  159. ID                                       : 12
  160. Format                                   : UTF-8
  161. Codec ID                                 : S_TEXT/UTF8
  162. Codec ID/Info                            : UTF-8 Plain Text
  163. Duration                                 : 1 h 35 min
  164. Bit rate                                 : 22 b/s
  165. Count of elements                        : 370
  166. Stream size                              : 15.7 KiB (0%)
  167. Language                                 : Hebrew
  168. Default                                  : No
  169. Forced                                   : No
  170. Text #11
  171. ID                                       : 13
  172. Format                                   : UTF-8
  173. Codec ID                                 : S_TEXT/UTF8
  174. Codec ID/Info                            : UTF-8 Plain Text
  175. Duration                                 : 1 h 35 min
  176. Bit rate                                 : 14 b/s
  177. Count of elements                        : 370
  178. Stream size                              : 10.5 KiB (0%)
  179. Language                                 : Italian
  180. Default                                  : No
  181. Forced                                   : No
  182. Text #12
  183. ID                                       : 14
  184. Format                                   : UTF-8
  185. Codec ID                                 : S_TEXT/UTF8
  186. Codec ID/Info                            : UTF-8 Plain Text
  187. Duration                                 : 1 h 35 min
  188. Bit rate                                 : 14 b/s
  189. Count of elements                        : 362
  190. Stream size                              : 9.87 KiB (0%)
  191. Language                                 : Japanese
  192. Default                                  : No
  193. Forced                                   : No
  194. Text #13
  195. ID                                       : 15
  196. Format                                   : UTF-8
  197. Codec ID                                 : S_TEXT/UTF8
  198. Codec ID/Info                            : UTF-8 Plain Text
  199. Duration                                 : 1 h 34 min
  200. Bit rate                                 : 17 b/s
  201. Count of elements                        : 369
  202. Stream size                              : 12.4 KiB (0%)
  203. Language                                 : Korean
  204. Default                                  : No
  205. Forced                                   : No
  206. Text #14
  207. ID                                       : 16
  208. Format                                   : UTF-8
  209. Codec ID                                 : S_TEXT/UTF8
  210. Codec ID/Info                            : UTF-8 Plain Text
  211. Duration                                 : 1 h 35 min
  212. Bit rate                                 : 14 b/s
  213. Count of elements                        : 370
  214. Stream size                              : 10.1 KiB (0%)
  215. Language                                 : Norwegian Bokmal
  216. Default                                  : No
  217. Forced                                   : No
  218. Text #15
  219. ID                                       : 17
  220. Format                                   : UTF-8
  221. Codec ID                                 : S_TEXT/UTF8
  222. Codec ID/Info                            : UTF-8 Plain Text
  223. Duration                                 : 1 h 35 min
  224. Bit rate                                 : 13 b/s
  225. Count of elements                        : 367
  226. Stream size                              : 9.81 KiB (0%)
  227. Language                                 : Dutch
  228. Default                                  : No
  229. Forced                                   : No
  230. Text #16
  231. ID                                       : 18
  232. Format                                   : UTF-8
  233. Codec ID                                 : S_TEXT/UTF8
  234. Codec ID/Info                            : UTF-8 Plain Text
  235. Duration                                 : 1 h 35 min
  236. Bit rate                                 : 12 b/s
  237. Count of elements                        : 370
  238. Stream size                              : 9.09 KiB (0%)
  239. Language                                 : Polish
  240. Default                                  : No
  241. Forced                                   : No
  242. Text #17
  243. ID                                       : 19
  244. Format                                   : UTF-8
  245. Codec ID                                 : S_TEXT/UTF8
  246. Codec ID/Info                            : UTF-8 Plain Text
  247. Duration                                 : 1 h 35 min
  248. Bit rate                                 : 14 b/s
  249. Count of elements                        : 370
  250. Stream size                              : 10.2 KiB (0%)
  251. Language                                 : Portuguese
  252. Default                                  : No
  253. Forced                                   : No
  254. Text #18
  255. ID                                       : 20
  256. Format                                   : UTF-8
  257. Codec ID                                 : S_TEXT/UTF8
  258. Codec ID/Info                            : UTF-8 Plain Text
  259. Duration                                 : 1 h 35 min
  260. Bit rate                                 : 13 b/s
  261. Count of elements                        : 370
  262. Stream size                              : 9.59 KiB (0%)
  263. Language                                 : Romanian
  264. Default                                  : No
  265. Forced                                   : No
  266. Text #19
  267. ID                                       : 21
  268. Format                                   : UTF-8
  269. Codec ID                                 : S_TEXT/UTF8
  270. Codec ID/Info                            : UTF-8 Plain Text
  271. Duration                                 : 1 h 35 min
  272. Bit rate                                 : 14 b/s
  273. Count of elements                        : 370
  274. Stream size                              : 10.2 KiB (0%)
  275. Language                                 : Swedish
  276. Default                                  : No
  277. Forced                                   : No
  278. Text #20
  279. ID                                       : 22
  280. Format                                   : UTF-8
  281. Codec ID                                 : S_TEXT/UTF8
  282. Codec ID/Info                            : UTF-8 Plain Text
  283. Duration                                 : 1 h 35 min
  284. Bit rate                                 : 37 b/s
  285. Count of elements                        : 370
  286. Stream size                              : 26.2 KiB (0%)
  287. Language                                 : Thai
  288. Default                                  : No
  289. Forced                                   : No
  290. Text #21
  291. ID                                       : 23
  292. Format                                   : UTF-8
  293. Codec ID                                 : S_TEXT/UTF8
  294. Codec ID/Info                            : UTF-8 Plain Text
  295. Duration                                 : 1 h 35 min
  296. Bit rate                                 : 15 b/s
  297. Count of elements                        : 370
  298. Stream size                              : 10.9 KiB (0%)
  299. Language                                 : Turkish
  300. Default                                  : No
  301. Forced                                   : No
  302. Text #22
  303. ID                                       : 24
  304. Format                                   : UTF-8
  305. Codec ID                                 : S_TEXT/UTF8
  306. Codec ID/Info                            : UTF-8 Plain Text
  307. Duration                                 : 1 h 35 min
  308. Bit rate                                 : 14 b/s
  309. Count of elements                        : 370
  310. Stream size                              : 9.86 KiB (0%)
  311. Title                                    : Simplified
  312. Language                                 : Chinese
  313. Default                                  : No
  314. Forced                                   : No
  315. Text #23
  316. ID                                       : 25
  317. Format                                   : UTF-8
  318. Codec ID                                 : S_TEXT/UTF8
  319. Codec ID/Info                            : UTF-8 Plain Text
  320. Duration                                 : 1 h 35 min
  321. Bit rate                                 : 13 b/s
  322. Count of elements                        : 370
  323. Stream size                              : 9.38 KiB (0%)
  324. Title                                    : Traditional
  325. Language                                 : Chinese
  326. Default                                  : No
  327. Forced                                   : No
复制代码






                                       
                                       

                                       
                                       
                                       




回复

使用道具 举报

懒得打字嘛,点击右侧快捷回复 【右侧内容,后台自定义】
您需要登录后才可以回帖 登录 | 立即加入

本版积分规则

Archiver|小黑屋| 蓝光电影网 |网站地图

Copyright © 2021 Comsenz Inc. Powered by 蓝光电影网

蓝光电影网

本站内容由用户自主分享和转载自互联网,转载目的在于传递更多信息,并不代表本网赞同其观点和对其真实性负责。

如有侵权、违反国家法律政策行为,请联系我们,我们会第一时间及时清除和处理!

举报反馈邮箱:[email protected]

快速回复 返回顶部 返回列表