找回密码

蓝光电影网

查看: 19|回复: 0

[剧情] 虎穴幽兰 The.Damned.Dont.Cry.1950.1080p.AMZN.WEBRip.DDP2.0.x264-ABM 9.95GB

[复制链接]
蓝光币
511
发表于 2021-8-20 01:16:12 | 显示全部楼层 |阅读模式


◎译  名 虎穴幽兰
◎片  名 The Damned Don't Cry
◎年  代 1950
◎产  地 美国
◎类  别 剧情 / 恋爱 / 黑色电影
◎语  言 英语
◎上映日期 1950-05-07
◎IMDb评分  7.2/10 from 2338 users
◎IMDb链接  https://www.imdb.com/title/tt0042376/
◎豆瓣评分 /10 from 0 users
◎豆瓣链接 https://movie.douban.com/subject/3286361/
◎片  长 103 分钟
◎导  演 文森特·舒曼 Vincent Sherman
◎编  剧 杰尔姆·韦德曼 Jerome Weidman / Gertrude Walker / 哈罗德·梅德福 Harold Medford
◎主  演 凯斯·理查德 Keith Richards
       威廉·H·奥布莱恩 William H. O'Brien
       Herbert Lytton
       David Leonard
       Warren Mace
       里昂·朗塔克 Leon Lontoc
       Rory Mallinson
       Eddie Marr
       李·米勒 Lee Miller
       Ralph Sanford
       赛琳娜·罗伊尔 Selena Royle
       Crane Whitley
       Duke Watson
       赫尔伯·维吉兰 Herb Vigran
       Clarence Straight
       Brick Sullivan
       查尔兹·歇洛克 Charles Sherlock
       安·鲁滨逊 Ann Robinson
       Jameson Shade
       修米桑德斯 Hugh Sanders
       Lyle Latell
       弗雷德·凯尔西 Fred Kelsey
       Tom Greenway
       Bonnie Bannon
       George Baxter
       莫里斯·安克鲁姆 Morris Ankrum
       斯特罗瑟·马丁 Strother Martin
       艾迪·凯恩 Eddie Kane
       特利斯特拉姆·科芬 Tristram Coffin
       赫歇尔·多尔蒂 Herschel Daugherty
       肯特·史姑娘 Kent Smith
       大卫·布莱恩 David Brian
       理查德·伊甘 Richard Egan
       史蒂夫·柯臣 Steve Cochran
       凯瑟琳卡 Kathryn Card
       Paul Bradley
       William E. Green
       Jack Gargan
       Weldon Heyburn
       Ned Glass
       戴布思·格里尔 Dabbs Greer
       杰奎琳·德威特 Jacqueline deWit
       贝丝·弗劳尔斯 Bess Flowers
       伊迪丝·埃文森 Edith Evanson
       Don Forbes
       杰伊·伊顿 Jay Eaton
       Ric Roman
       琼·克劳馥 Joan Crawford
◎标  签 黑色电影 | 美国 | Joan_Crawford | 1950 | 琼·克劳馥 | 文森特·舒曼 | JoanCrawford | 1950s
◎简  介


  The murder of gangster Nick Prenta touches off an investigation of mysterious socialite Lorna Hansen Forbes, who seems to have no past, and has now disappeared. In flashback, we see the woman's anonymous roots; her poor working-class marriage, which ends in tragedy and her determination to find "better things." Soon finding that sex appeal is her only salable commodity, she climbs from man to man toward the center of a nationwide crime syndicate...
  1. Video
  2. ID                                       : 1
  3. Format                                   : AVC
  4. Format/Info                              : Advanced Video Codec
  5. Format profile                           : [email protected]
  6. Format settings                          : CABAC / 4 Ref Frames
  7. Format settings, CABAC                   : Yes
  8. Format settings, Reference frames        : 4 frames
  9. Codec ID                                 : V_MPEG4/ISO/AVC
  10. Duration                                 : 1 h 43 min
  11. Bit rate mode                            : Variable
  12. Bit rate                                 : 13.3 Mb/s
  13. Maximum bit rate                         : 15.0 Mb/s
  14. Width                                    : 1 440 pixels
  15. Height                                   : 1 080 pixels
  16. Display aspect ratio                     : 1.375
  17. Frame rate mode                          : Constant
  18. Frame rate                               : 23.976 (24000/1001/189150) FPS
  19. Color space                              : YUV
  20. Chroma subsampling                       : 4:2:0
  21. Bit depth                                : 8 bits
  22. Scan type                                : Progressive
  23. Bits/(Pixel*Frame)                       : 0.357
  24. Stream size                              : 9.59 GiB (96%)
  25. Writing library                          : x264 core 148 r2623 d5b2374
  26. Encoding settings                        : cabac=1 / ref=4 / deblock=1:-1:-1 / analyse=0x3:0x133 / me=umh / subme=9 / psy=1 / psy_rd=1.00:0.15 / mixed_ref=1 / me_range=24 / chroma_me=1 / trellis=2 / 8x8dct=1 / cqm=0 / deadzone=21,11 / fast_pskip=1 / chroma_qp_offset=-3 / threads=34 / lookahead_threads=5 / sliced_threads=0 / nr=150 / decimate=1 / interlaced=0 / bluray_compat=0 / constrained_intra=0 / bframes=8 / b_pyramid=2 / b_adapt=2 / b_bias=0 / direct=3 / weightb=1 / open_gop=0 / weightp=2 / keyint=120 / keyint_min=61 / scenecut=0 / intra_refresh=0 / rc_lookahead=120 / rc=crf / mbtree=1 / crf=18.0 / qcomp=0.60 / qpmin=0 / qpmax=69 / qpstep=4 / vbv_maxrate=15000 / vbv_bufsize=31250 / crf_max=0.0 / nal_hrd=vbr / filler=0 / ip_ratio=1.40 / aq=3:1.00
  27. Language                                 : English
  28. Default                                  : Yes
  29. Forced                                   : No
  30. Color range                              : Limited
  31. Color primaries                          : BT.709
  32. Transfer characteristics                 : BT.709
  33. Matrix coefficients                      : BT.709
  34. Audio
  35. ID                                       : 2
  36. Format                                   : E-AC-3
  37. Format/Info                              : Enhanced AC-3
  38. Commercial name                          : Dolby Digital Plus
  39. Codec ID                                 : A_EAC3
  40. Duration                                 : 1 h 43 min
  41. Bit rate mode                            : Constant
  42. Bit rate                                 : 224 kb/s
  43. Channel(s)                               : 2 channels
  44. Channel layout                           : L R
  45. Sampling rate                            : 48.0 kHz
  46. Frame rate                               : 31.250 FPS (1536 SPF)
  47. Compression mode                         : Lossy
  48. Stream size                              : 165 MiB (2%)
  49. Language                                 : English
  50. Service kind                             : Complete Main
  51. Default                                  : Yes
  52. Forced                                   : No
  53. Text #1
  54. ID                                       : 3
  55. Format                                   : UTF-8
  56. Codec ID                                 : S_TEXT/UTF8
  57. Codec ID/Info                            : UTF-8 Plain Text
  58. Language                                 : English
  59. Default                                  : No
  60. Forced                                   : No
  61. Text #2
  62. ID                                       : 4
  63. Format                                   : UTF-8
  64. Codec ID                                 : S_TEXT/UTF8
  65. Codec ID/Info                            : UTF-8 Plain Text
  66. Title                                    : SDH
  67. Language                                 : English
  68. Default                                  : No
  69. Forced                                   : No
复制代码






                                       
                                       

                                       
                                       
                                       




回复

使用道具 举报

懒得打字嘛,点击右侧快捷回复 【右侧内容,后台自定义】
您需要登录后才可以回帖 登录 | 立即加入

本版积分规则

Archiver|小黑屋| 蓝光电影网 |网站地图

Copyright © 2021 Comsenz Inc. Powered by 蓝光电影网

蓝光电影网

本站内容由用户自主分享和转载自互联网,转载目的在于传递更多信息,并不代表本网赞同其观点和对其真实性负责。

如有侵权、违反国家法律政策行为,请联系我们,我们会第一时间及时清除和处理!

举报反馈邮箱:[email protected]

快速回复 返回顶部 返回列表