找回密码

蓝光电影网

查看: 25|回复: 0

[剧情] 饥饿 Hunger.1966.SWEDISH.1080p.WEBRip.AAC2.0.x264-NOGRP 4.61GB

[复制链接]
蓝光币
511
发表于 2021-8-20 01:17:06 | 显示全部楼层 |阅读模式


◎译  名 饥饿
◎片  名 Sult
◎年  代 1966
◎产  地 丹麦,挪威,瑞典
◎类  别 剧情
◎语  言 丹麦语
◎上映日期 1966-08-19
◎IMDb评分  7.8/10 from 2762 users
◎IMDb链接  https://www.imdb.com/title/tt0061042/
◎豆瓣评分 8.2/10 from 506 users
◎豆瓣链接 https://movie.douban.com/subject/1294680/
◎片  长 112 分钟
◎导  演 卡尔森·亨宁 Henning Carlsen
◎编  剧 卡尔森·亨宁 Henning Carlsen / 克努特·哈姆生 Knut Hamsun / Peter Seeberg
◎主  演 帕尔·奥斯卡森 Per Oscarsson
       古内尔·林德布洛姆 Gunnel Lindblom
       比吉特·菲德斯皮尔 Birgitte Federspiel
       Knud Rex
       Hans W. Petersen
       Henki Kolstad
       Roy Bj?rnstad
       Sverre Hansen
       P?l Skj?nberg
       Else Heiberg
       Lise Fjeldstad
       Carl Ottosen
       Bjarne Andersen
       Wilfred Breistrand
       奥斯瓦尔德·赫尔穆特 Osvald Helmuth
       Sigrid Horne-Rasmussen
       Ola B. Johannessen
       Lars Tvinde
       卡尔斯腾·佰林 Carsten Byhring
       Frimann Falck Clausen
       Leif Enger
       Per Gjers?e
       Veslem?y Haslund
       Per Theodor Haugen
       Egil Hjorth-Jenssen
       Vilhelm Lund
       Lars Nordrum
       Rolf Sand
       Toralf Sand?
       K?re Wicklund
◎标  签 丹麦 | 丹麦电影 | 1966 | 挪威 | 瑞典 | HenningCarlsen | 1960s | 社会
◎简  介


  1890年月,失业的本图斯很久没有吃过一顿饱饭了,恰恰灾患丛生,房东又将他赶出了门,无家可归的他碰上了富蜜斯亚鲁亚莉,编辑部也告诉他他的投稿只要略加修改便可颁发,一切似乎都将好起来,可亚鲁利亚的犹豫让本图斯终究大白,这里并不合适他,他踏上远去的汽船,去寻觅真正属于自己的 幸运人生。
◎获奖情况
  第19届戛纳电影节 ?(1966)
  主比赛单元金棕榈奖(提名) 卡尔森·亨宁
  主比赛单元最好男演员 帕尔·奥斯卡森
  1. Video
  2. ID                                       : 1
  3. Format                                   : AVC
  4. Format/Info                              : Advanced Video Codec
  5. Format profile                           : [email protected]
  6. Format settings                          : CABAC / 2 Ref Frames
  7. Format settings, CABAC                   : Yes
  8. Format settings, Reference frames        : 2 frames
  9. Codec ID                                 : V_MPEG4/ISO/AVC
  10. Duration                                 : 1 h 46 min
  11. Bit rate mode                            : Constant
  12. Bit rate                                 : 6 000 kb/s
  13. Width                                    : 1 920 pixels
  14. Height                                   : 1 080 pixels
  15. Display aspect ratio                     : 16:9
  16. Frame rate mode                          : Constant
  17. Frame rate                               : 25.000 FPS
  18. Color space                              : YUV
  19. Chroma subsampling                       : 4:2:0
  20. Bit depth                                : 8 bits
  21. Scan type                                : Progressive
  22. Bits/(Pixel*Frame)                       : 0.116
  23. Stream size                              : 4.46 GiB (97%)
  24. Default                                  : Yes
  25. Forced                                   : No
  26. Audio
  27. ID                                       : 2
  28. Format                                   : AAC LC
  29. Format/Info                              : Advanced Audio Codec Low Complexity
  30. Codec ID                                 : A_AAC-2
  31. Duration                                 : 1 h 46 min
  32. Bit rate                                 : 192 kb/s
  33. Channel(s)                               : 2 channels
  34. Channel layout                           : L R
  35. Sampling rate                            : 48.0 kHz
  36. Frame rate                               : 46.875 FPS (1024 SPF)
  37. Compression mode                         : Lossy
  38. Stream size                              : 146 MiB (3%)
  39. Language                                 : Swedish
  40. Default                                  : Yes
  41. Forced                                   : No
  42. Text
  43. ID                                       : 3
  44. Format                                   : UTF-8
  45. Codec ID                                 : S_TEXT/UTF8
  46. Codec ID/Info                            : UTF-8 Plain Text
  47. Duration                                 : 1 h 45 min
  48. Bit rate                                 : 28 b/s
  49. Count of elements                        : 651
  50. Stream size                              : 21.8 KiB (0%)
  51. Language                                 : English
  52. Default                                  : Yes
  53. Forced                                   : No
复制代码






                                       
                                       

                                       
                                       
                                       




回复

使用道具 举报

懒得打字嘛,点击右侧快捷回复 【右侧内容,后台自定义】
您需要登录后才可以回帖 登录 | 立即加入

本版积分规则

Archiver|小黑屋| 蓝光电影网 |网站地图

Copyright © 2021 Comsenz Inc. Powered by 蓝光电影网

蓝光电影网

本站内容由用户自主分享和转载自互联网,转载目的在于传递更多信息,并不代表本网赞同其观点和对其真实性负责。

如有侵权、违反国家法律政策行为,请联系我们,我们会第一时间及时清除和处理!

举报反馈邮箱:[email protected]

快速回复 返回顶部 返回列表