找回密码

蓝光电影网

查看: 26|回复: 0

[剧情] 女初中生A Student.A.2018.KOREAN.1080p.WEBRip.x264-VXT 2.17GB

[复制链接]
蓝光币
511
发表于 2021-8-20 01:18:02 | 显示全部楼层 |阅读模式


◎译  名 女初中生A/Student A/初中女生A的虚拟乐园(港)/女中生A/未来的青春笔记(台)
◎片  名 ???A
◎年  代 2018
◎产  地 韩国
◎类  别 剧情
◎语  言 韩语
◎上映日期 2018-06-20(韩国)
◎IMDb评分  7.3/10 from 95 users
◎IMDb链接  https://www.imdb.com/title/tt8574270/
◎豆瓣评分 6.6/10 from 444 users
◎豆瓣链接 https://movie.douban.com/subject/30207776/
◎片  长 110分钟(韩国)
◎导  演 李敬燮 Kyung-Sub Lee
◎主  演 郑多恩 Jung Da-eun
       郑多彬 Da-bin Jung
       金焕熙 Kim Hwan-hee
       金俊勉 SUHO
       刘宰尚 Jae-sang Yoo
       玉允中 Yoon-joong Ok
       郑亨奭 Hyeong-Seok Jeong
       金贤彬 Hyun-bin Kim
       李钟赫 Jong-hyeok Lee
◎标  签 韩国电影 | 韩国 | 青春 | 长大 | 电影 | 韩剧 | 金俊勉 | 韩影
◎简  介


  该片按照同名收集人气漫画改编,报告了存在被排挤、家庭暴力、游戏中毒、厌女症等社会题目标中门生逐步起头与社会打仗,并进修若何与人相处的故事。
  1. Video
  2. ID                                       : 1
  3. Format                                   : AVC
  4. Format/Info                              : Advanced Video Codec
  5. Format profile                           : [email protected]
  6. Format settings                          : CABAC / 4 Ref Frames
  7. Format settings, CABAC                   : Yes
  8. Format settings, Reference frames        : 4 frames
  9. Codec ID                                 : avc1
  10. Codec ID/Info                            : Advanced Video Coding
  11. Duration                                 : 1 h 53 min
  12. Bit rate                                 : 2 500 kb/s
  13. Width                                    : 1 920 pixels
  14. Height                                   : 804 pixels
  15. Display aspect ratio                     : 2.40:1
  16. Frame rate mode                          : Constant
  17. Frame rate                               : 23.976 (23976/1000/189150) FPS
  18. Color space                              : YUV
  19. Chroma subsampling                       : 4:2:0
  20. Bit depth                                : 8 bits
  21. Scan type                                : Progressive
  22. Bits/(Pixel*Frame)                       : 0.068
  23. Stream size                              : 1.99 GiB (92%)
  24. Writing library                          : x264 core 152 r2851M ba24899
  25. Encoding settings                        : cabac=1 / ref=4 / deblock=1:-1:-1 / analyse=0x3:0x113 / me=umh / subme=9 / psy=1 / psy_rd=1.00:0.15 / mixed_ref=1 / me_range=24 / chroma_me=1 / trellis=2 / 8x8dct=1 / cqm=0 / deadzone=21,11 / fast_pskip=1 / chroma_qp_offset=-3 / threads=16 / lookahead_threads=4 / sliced_threads=0 / nr=0 / decimate=1 / interlaced=0 / bluray_compat=0 / constrained_intra=0 / bframes=3 / b_pyramid=2 / b_adapt=2 / b_bias=0 / direct=3 / weightb=1 / open_gop=0 / weightp=2 / keyint=250 / keyint_min=25 / scenecut=40 / intra_refresh=0 / rc_lookahead=50 / rc=2pass / mbtree=1 / bitrate=2500 / ratetol=1.0 / qcomp=0.60 / qpmin=0 / qpmax=69 / qpstep=4 / cplxblur=20.0 / qblur=0.5 / vbv_maxrate=31250 / vbv_bufsize=31250 / nal_hrd=none / filler=0 / ip_ratio=1.40 / aq=3:1.00
  26. Encoded date                             : UTC 2020-09-28 10:44:56
  27. Tagged date                              : UTC 2020-09-28 10:44:56
  28. Codec configuration box                  : avcC
  29. Audio
  30. ID                                       : 2
  31. Format                                   : AAC LC
  32. Format/Info                              : Advanced Audio Codec Low Complexity
  33. Codec ID                                 : mp4a-40-2
  34. Duration                                 : 1 h 53 min
  35. Duration_LastFrame                       : -11 ms
  36. Bit rate mode                            : Constant
  37. Bit rate                                 : 224 kb/s
  38. Channel(s)                               : 6 channels
  39. Channel layout                           : C L R Ls Rs LFE
  40. Sampling rate                            : 48.0 kHz
  41. Frame rate                               : 46.875 FPS (1024 SPF)
  42. Compression mode                         : Lossy
  43. Stream size                              : 183 MiB (8%)
  44. Language                                 : Korean
  45. Default                                  : Yes
  46. Alternate group                          : 1
  47. Encoded date                             : UTC 2020-09-28 10:44:56
  48. Tagged date                              : UTC 2020-09-28 10:44:56
复制代码






                                       
                                       

                                       
                                       
                                       




回复

使用道具 举报

懒得打字嘛,点击右侧快捷回复 【右侧内容,后台自定义】
您需要登录后才可以回帖 登录 | 立即加入

本版积分规则

Archiver|小黑屋| 蓝光电影网 |网站地图

Copyright © 2021 Comsenz Inc. Powered by 蓝光电影网

蓝光电影网

本站内容由用户自主分享和转载自互联网,转载目的在于传递更多信息,并不代表本网赞同其观点和对其真实性负责。

如有侵权、违反国家法律政策行为,请联系我们,我们会第一时间及时清除和处理!

举报反馈邮箱:[email protected]

快速回复 返回顶部 返回列表