找回密码

蓝光电影网

查看: 21|回复: 0

[剧情] 你的祈祷 Say.Your.Prayers.2020.1080p.WEB-DL.DD5.1.H264-FGT 2.94GB

[复制链接]
蓝光币
515
发表于 2021-8-20 01:18:11 | 显示全部楼层 |阅读模式


◎译  名 你的祈祷
◎片  名 Say Your Prayers
◎年  代 2020
◎产  地 英国
◎类  别 剧情 / 笑剧 / 惊悚
◎语  言 英语
◎上映日期 2020-09-28(英国)
◎IMDb链接  https://www.imdb.com/title/tt4229826/
◎豆瓣评分 /10 from 0 users
◎豆瓣链接 https://movie.douban.com/subject/35166347/
◎导  演 哈里·米歇尔 Harry Michell
◎编  剧 哈里·米歇尔 Harry Michell
◎主  演 罗杰·阿拉姆 Roger Allam
       德里克·雅各比 Derek Jacobi
       安娜·麦克西维尔·马丁 Anna Maxwell Martin
       凯特琳·桑德斯 Caitlin Saunders
◎简  介


  Orphaned brothers and Christian radicals, Tim and Vic, arrive in Ilkley with the relatively straightforward task of assassinating Professor John Huxley. However, after a classic case of mistaken identity, they find themselves having murdered the wrong man.
  
  Now stuck in the town during Ilkley's busiest weekend, they wait for the arrival of a foreboding mentor to give them instruction. The mission must still be completed - that's providing Vic’s rage, Tim’s doubts or the efforts of foul-mouthed Detective Inspector Brough don't get in the way first.
  1. Video
  2. ID                                       : 1
  3. Format                                   : AVC
  4. Format/Info                              : Advanced Video Codec
  5. Format profile                           : [email protected]
  6. Format settings                          : CABAC / 5 Ref Frames
  7. Format settings, CABAC                   : Yes
  8. Format settings, Reference frames        : 5 frames
  9. Codec ID                                 : V_MPEG4/ISO/AVC
  10. Duration                                 : 1 h 24 min
  11. Bit rate                                 : 4 601 kb/s
  12. Width                                    : 1 916 pixels
  13. Height                                   : 800 pixels
  14. Display aspect ratio                     : 2.40:1
  15. Frame rate mode                          : Constant
  16. Frame rate                               : 24.000 FPS
  17. Color space                              : YUV
  18. Chroma subsampling                       : 4:2:0
  19. Bit depth                                : 8 bits
  20. Scan type                                : Progressive
  21. Bits/(Pixel*Frame)                       : 0.125
  22. Stream size                              : 2.71 GiB (92%)
  23. Title                                    : Say.Your.Prayers.2020.1080p.WEB-DL.DD5.1.H264-FGT
  24. Language                                 : English
  25. Default                                  : Yes
  26. Forced                                   : No
  27. Color range                              : Limited
  28. Color primaries                          : BT.709
  29. Transfer characteristics                 : BT.709
  30. Matrix coefficients                      : BT.709
  31. Audio
  32. ID                                       : 2
  33. Format                                   : AC-3
  34. Format/Info                              : Audio Coding 3
  35. Commercial name                          : Dolby Digital
  36. Codec ID                                 : A_AC3
  37. Duration                                 : 1 h 24 min
  38. Bit rate mode                            : Constant
  39. Bit rate                                 : 384 kb/s
  40. Channel(s)                               : 6 channels
  41. Channel layout                           : L R C LFE Ls Rs
  42. Sampling rate                            : 48.0 kHz
  43. Frame rate                               : 31.250 FPS (1536 SPF)
  44. Compression mode                         : Lossy
  45. Stream size                              : 232 MiB (8%)
  46. Title                                    : Say.Your.Prayers.2020.1080p.WEB-DL.DD5.1.H264-FGT
  47. Language                                 : English
  48. Service kind                             : Complete Main
  49. Default                                  : Yes
  50. Forced                                   : No
复制代码






                                       
                                       

                                       
                                       
                                       




回复

使用道具 举报

懒得打字嘛,点击右侧快捷回复 【右侧内容,后台自定义】
您需要登录后才可以回帖 登录 | 立即加入

本版积分规则

Archiver|小黑屋| 蓝光电影网 |网站地图

Copyright © 2021 Comsenz Inc. Powered by 蓝光电影网

蓝光电影网

本站内容由用户自主分享和转载自互联网,转载目的在于传递更多信息,并不代表本网赞同其观点和对其真实性负责。

如有侵权、违反国家法律政策行为,请联系我们,我们会第一时间及时清除和处理!

举报反馈邮箱:[email protected]

快速回复 返回顶部 返回列表