找回密码

蓝光电影网

查看: 29|回复: 0

[剧情] 黏巴达禁舞/劲舞骄阳 The.Forbidden.Dance.1990.1080p.AMZN.WEBRip.DDP2.0.x264-Candial 9.87GB

[复制链接]
蓝光币
515
发表于 2021-8-20 01:18:35 | 显示全部楼层 |阅读模式


◎译  名 黏巴达禁舞/劲舞烈日
◎片  名 The Forbidden Dance
◎年  代 1990
◎产  地 美国
◎类  别 剧情 / 恋爱
◎语  言 英语
◎上映日期 1990-03-16
◎IMDb评分  3.9/10 from 1480 users
◎IMDb链接  https://www.imdb.com/title/tt0099595/
◎豆瓣评分 /10 from 0 users
◎豆瓣链接 https://movie.douban.com/subject/1296013/
◎片  长 97 分钟
◎导  演 格雷登·克拉克 Greydon Clark
◎主  演 Miranda Garrison
       Shannon Farnon
◎标  签 美国电影 | 歌舞 | 黏巴达禁舞 | 恋爱 | 情色 | 想要看 | 要看 | 美国
◎简  介


  一位绮年玉貌、热情实足的巴西公主、眼看着她们的大森林贝未来的侵犯者破坏无遗,愤慨之余,决心展开拯救的工作,当她来到洛杉矶目击美国社会现状后,决议以她特别的舞技「黏巴达」与那些结合构造调换民主战争的誓约,因而一场震天动地的热舞……
  1. Video
  2. ID                                       : 1
  3. Format                                   : AVC
  4. Format/Info                              : Advanced Video Codec
  5. Format profile                           : [email protected]
  6. Format settings                          : CABAC / 4 Ref Frames
  7. Format settings, CABAC                   : Yes
  8. Format settings, Reference frames        : 4 frames
  9. Codec ID                                 : V_MPEG4/ISO/AVC
  10. Duration                                 : 1 h 37 min
  11. Bit rate                                 : 14.3 Mb/s
  12. Width                                    : 1 920 pixels
  13. Height                                   : 1 080 pixels
  14. Display aspect ratio                     : 16:9
  15. Frame rate mode                          : Constant
  16. Frame rate                               : 23.976 (24000/1001/189150) FPS
  17. Color space                              : YUV
  18. Chroma subsampling                       : 4:2:0
  19. Bit depth                                : 8 bits
  20. Scan type                                : Progressive
  21. Bits/(Pixel*Frame)                       : 0.288
  22. Stream size                              : 9.72 GiB (98%)
  23. Language                                 : English
  24. Default                                  : Yes
  25. Forced                                   : No
  26. Color range                              : Limited
  27. Color primaries                          : BT.709
  28. Transfer characteristics                 : BT.709
  29. Matrix coefficients                      : BT.709
  30. Audio
  31. ID                                       : 2
  32. Format                                   : E-AC-3
  33. Format/Info                              : Enhanced AC-3
  34. Commercial name                          : Dolby Digital Plus
  35. Codec ID                                 : A_EAC3
  36. Duration                                 : 1 h 37 min
  37. Bit rate mode                            : Constant
  38. Bit rate                                 : 224 kb/s
  39. Channel(s)                               : 2 channels
  40. Channel layout                           : L R
  41. Sampling rate                            : 48.0 kHz
  42. Frame rate                               : 31.250 FPS (1536 SPF)
  43. Compression mode                         : Lossy
  44. Stream size                              : 156 MiB (2%)
  45. Language                                 : English
  46. Service kind                             : Complete Main
  47. Default                                  : Yes
  48. Forced                                   : No
  49. Text
  50. ID                                       : 3
  51. Format                                   : UTF-8
  52. Codec ID                                 : S_TEXT/UTF8
  53. Codec ID/Info                            : UTF-8 Plain Text
  54. Duration                                 : 1 h 37 min
  55. Bit rate                                 : 59 b/s
  56. Count of elements                        : 1529
  57. Stream size                              : 42.1 KiB (0%)
  58. Language                                 : English
  59. Default                                  : Yes
  60. Forced                                   : No
复制代码






                                       
                                       

                                       
                                       
                                       




回复

使用道具 举报

懒得打字嘛,点击右侧快捷回复 【右侧内容,后台自定义】
您需要登录后才可以回帖 登录 | 立即加入

本版积分规则

Archiver|小黑屋| 蓝光电影网 |网站地图

Copyright © 2021 Comsenz Inc. Powered by 蓝光电影网

蓝光电影网

本站内容由用户自主分享和转载自互联网,转载目的在于传递更多信息,并不代表本网赞同其观点和对其真实性负责。

如有侵权、违反国家法律政策行为,请联系我们,我们会第一时间及时清除和处理!

举报反馈邮箱:[email protected]

快速回复 返回顶部 返回列表