找回密码

蓝光电影网

查看: 55|回复: 0

[剧情] 虎厂 The.Tiger.Factory.2010.MALAY.1080p.NF.WEBRip.AAC2.0.x264-tG1R0 3.50GB

[复制链接]
蓝光币
515
发表于 2021-8-20 01:19:21 | 显示全部楼层 |阅读模式


◎译  名 虎厂
◎片  名 The Tiger Factory
◎年  代 2010
◎产  地 日本,马来西亚
◎类  别 剧情
◎语  言 马来语,粤语,汉语普通话
◎上映日期 2010-05-21(戛纳电影节)
◎IMDb评分  6.7/10 from 43 users
◎IMDb链接  https://www.imdb.com/title/tt1646982/
◎豆瓣评分 /10 from 0 users
◎豆瓣链接 https://movie.douban.com/subject/4824148/
◎片  长 84分钟
◎导  演 胡明进 Woo Ming Jin
◎编  剧 胡明进 Woo Ming Jin / 杨毅恒 Edmund Yeo
◎主  演 蔡宝珠 Pearlly Chua
◎标  签 马来西亚电影 | 马来西亚 | 日本 | 吴明金 | 2010 | 馬來西亞 | 越南 | 电影
◎简  介


  故事描写一位十九岁的少女萍萍,胡想能到日本的汽车零件公司工作,但是为了生活她必须靠在养猪场和为餐厅洗碗的两份工作生活。而她的监护人阿姨田夫人,本来黑暗经营婴儿买卖,专门放置少妇与外劳交欢,然后将生下的婴儿转卖给没法生育的佳耦,从而赚取利润。原本就和田夫人相处反面谐的萍萍,在得知了这类犯警活动后,心里发生了极大的抵触和挣扎。
  
  Ping Ping is 19 and wants to go to Japan to work in a car parts company. She's under the guardian of her aunt, Madame Tien, who shuffles her between two jobs; working in a pig farm, and cleaning dishes in a rundown restaurant. Tien is also involved in a ‘baby factory’ scheme, pairing young women with migrant workers and then selling the babies for money. Both survive with each other in a love-hate symbiotic manner, until a truth about her aunt is revealed to Ping Ping.
◎获奖情况
  第23届东京国际电影节 ?(2010)
  亚洲之风出格说起 胡明进
  1. Video
  2. ID                                       : 1
  3. Format                                   : AVC
  4. Format/Info                              : Advanced Video Codec
  5. Format profile                           : [email protected]
  6. Format settings                          : CABAC / 4 Ref Frames
  7. Format settings, CABAC                   : Yes
  8. Format settings, Reference frames        : 4 frames
  9. Codec ID                                 : V_MPEG4/ISO/AVC
  10. Duration                                 : 1 h 24 min
  11. Bit rate                                 : 5 872 kb/s
  12. Width                                    : 1 920 pixels
  13. Height                                   : 1 080 pixels
  14. Display aspect ratio                     : 16:9
  15. Frame rate mode                          : Constant
  16. Frame rate                               : 25.000 FPS
  17. Color space                              : YUV
  18. Chroma subsampling                       : 4:2:0
  19. Bit depth                                : 8 bits
  20. Scan type                                : Progressive
  21. Bits/(Pixel*Frame)                       : 0.113
  22. Stream size                              : 3.42 GiB (98%)
  23. Title                                    : The Tiger Factory (2010) [MUBI] - tt1646982
  24. Writing library                          : x264 core 155 r2917 0a84d98
  25. Encoding settings                        : cabac=1 / ref=3 / deblock=1:-1:-1 / analyse=0x3:0x113 / me=hex / subme=8 / psy=1 / psy_rd=1.00:0.15 / mixed_ref=1 / me_range=16 / chroma_me=1 / trellis=2 / 8x8dct=1 / cqm=0 / deadzone=21,11 / fast_pskip=1 / chroma_qp_offset=-3 / threads=34 / lookahead_threads=5 / sliced_threads=0 / nr=0 / decimate=1 / interlaced=0 / bluray_compat=0 / constrained_intra=0 / bframes=5 / b_pyramid=2 / b_adapt=1 / b_bias=0 / direct=3 / weightb=1 / open_gop=0 / weightp=2 / keyint=50 / keyint_min=26 / scenecut=0 / intra_refresh=0 / rc_lookahead=50 / rc=abr / mbtree=1 / bitrate=5872 / ratetol=1.0 / qcomp=0.60 / qpmin=0 / qpmax=69 / qpstep=4 / vbv_maxrate=9000 / vbv_bufsize=27000 / nal_hrd=none / filler=0 / ip_ratio=1.40 / aq=1:1.00
  26. Language                                 : Malay
  27. Default                                  : Yes
  28. Forced                                   : No
  29. Audio
  30. ID                                       : 2
  31. Format                                   : AAC LC
  32. Format/Info                              : Advanced Audio Codec Low Complexity
  33. Codec ID                                 : A_AAC-2
  34. Duration                                 : 1 h 24 min
  35. Bit rate                                 : 127 kb/s
  36. Channel(s)                               : 2 channels
  37. Channel layout                           : L R
  38. Sampling rate                            : 48.0 kHz
  39. Frame rate                               : 46.875 FPS (1024 SPF)
  40. Compression mode                         : Lossy
  41. Stream size                              : 77.3 MiB (2%)
  42. Language                                 : Malay
  43. Default                                  : Yes
  44. Forced                                   : No
  45. Text #1
  46. ID                                       : 3
  47. Format                                   : UTF-8
  48. Codec ID                                 : S_TEXT/UTF8
  49. Codec ID/Info                            : UTF-8 Plain Text
  50. Duration                                 : 1 h 19 min
  51. Bit rate                                 : 10 b/s
  52. Count of elements                        : 264
  53. Stream size                              : 6.33 KiB (0%)
  54. Language                                 : English
  55. Default                                  : Yes
  56. Forced                                   : No
  57. Text #2
  58. ID                                       : 4
  59. Format                                   : UTF-8
  60. Codec ID                                 : S_TEXT/UTF8
  61. Codec ID/Info                            : UTF-8 Plain Text
  62. Duration                                 : 1 h 23 min
  63. Bit rate                                 : 11 b/s
  64. Count of elements                        : 264
  65. Stream size                              : 6.72 KiB (0%)
  66. Language                                 : Portuguese
  67. Default                                  : No
  68. Forced                                   : No
  69. Text #3
  70. ID                                       : 5
  71. Format                                   : UTF-8
  72. Codec ID                                 : S_TEXT/UTF8
  73. Codec ID/Info                            : UTF-8 Plain Text
  74. Duration                                 : 1 h 19 min
  75. Bit rate                                 : 11 b/s
  76. Count of elements                        : 263
  77. Stream size                              : 6.42 KiB (0%)
  78. Language                                 : Spanish
  79. Default                                  : No
  80. Forced                                   : No
复制代码






                                       
                                       

                                       
                                       
                                       




回复

使用道具 举报

懒得打字嘛,点击右侧快捷回复 【右侧内容,后台自定义】
您需要登录后才可以回帖 登录 | 立即加入

本版积分规则

Archiver|小黑屋| 蓝光电影网 |网站地图

Copyright © 2021 Comsenz Inc. Powered by 蓝光电影网

蓝光电影网

本站内容由用户自主分享和转载自互联网,转载目的在于传递更多信息,并不代表本网赞同其观点和对其真实性负责。

如有侵权、违反国家法律政策行为,请联系我们,我们会第一时间及时清除和处理!

举报反馈邮箱:[email protected]

快速回复 返回顶部 返回列表