找回密码

蓝光电影网

查看: 49|回复: 0

[剧情] 神探狗笨吉/小狗本吉 Benji.2018.1080p.NF.WEBRip.DD5.1.x264-NTG 3.73GB

[复制链接]
蓝光币
519
发表于 2021-8-20 01:19:55 | 显示全部楼层 |阅读模式


◎译  名 神探狗笨吉/小狗本吉
◎片  名 Benji
◎年  代 2018
◎产  地 阿联酋,美国
◎类  别 剧情
◎语  言 英语
◎上映日期 2018-03-16(美国) / 2018-12-28(中国大陆)
◎IMDb评分  6.3/10 from 3636 users
◎IMDb链接  https://www.imdb.com/title/tt1799516/
◎豆瓣评分 6.8/10 from 3896 users
◎豆瓣链接 https://movie.douban.com/subject/26895438/
◎片  长 85分钟
◎导  演 布兰登·坎普 Brandon Camp
◎编  剧 布兰登·坎普 Brandon Camp / 乔·坎普 Joe Camp
◎主  演 费尔菲尔德 Fairfield
       加布里埃尔·贝特曼 Gabriel Bateman
       达比·坎普 Darby Camp
       基拉·桑切斯 Kiele Sanchez
       格拉伦·布莱恩特·班克斯 Gralen Bryant Banks
       威尔·罗斯海尔 Will Rothhaar
       安格斯·桑普森 Angus Sampson
       杰罗德·海恩斯 Jerod Haynes
       莱西·坎普 Lacy Camp
       吉姆·格里森 Jim Gleason
       布雷迪·佩蒙特 Brady Permenter
       汤姆·普罗克特 Tom Proctor
       乔恩·亚瑟 Jon Arthur
       詹姆斯·W·埃弗莫尔 James W. Evermore
◎标  签 狗狗 | 温情 | 动物 | 美国 | 狗 | 治愈 | 笑剧 | 2018
◎简  介


  “笨吉”原本是一只吃百家饭的流浪狗。它最喜好一对兄妹,由于他俩经常瞒着妈妈静静陪它顽耍,喂它美食。某天,这对兄妹被好人绑架。在妈妈和警方都惊慌不安而又莫衷一是之时,聪明勇敢的“神探狗”笨吉克服险阻,用自己的方式救出了这对兄妹,也找到了求之不得的家。笨吉的故事提醒我们,身旁的宠物也许就是拯救人类的豪杰。
  1. Video
  2. ID                                       : 1
  3. Format                                   : AVC
  4. Format/Info                              : Advanced Video Codec
  5. Format profile                           : [email protected]
  6. Format settings                          : CABAC / 3 Ref Frames
  7. Format settings, CABAC                   : Yes
  8. Format settings, Reference frames        : 3 frames
  9. Codec ID                                 : V_MPEG4/ISO/AVC
  10. Duration                                 : 1 h 27 min
  11. Bit rate mode                            : Variable
  12. Bit rate                                 : 5 800 kb/s
  13. Maximum bit rate                         : 8 700 kb/s
  14. Width                                    : 1 920 pixels
  15. Height                                   : 1 080 pixels
  16. Display aspect ratio                     : 16:9
  17. Frame rate mode                          : Constant
  18. Frame rate                               : 23.976 (24000/1001/189150) FPS
  19. Color space                              : YUV
  20. Chroma subsampling                       : 4:2:0
  21. Bit depth                                : 8 bits
  22. Scan type                                : Progressive
  23. Bits/(Pixel*Frame)                       : 0.117
  24. Stream size                              : 3.49 GiB (94%)
  25. Writing library                          : x264 core 148 r2715 7e75228
  26. Encoding settings                        : cabac=1 / ref=3 / deblock=1:0:0 / analyse=0x1:0x111 / me=umh / subme=10 / psy=1 / psy_rd=1.00:0.00 / mixed_ref=1 / me_range=24 / chroma_me=1 / trellis=2 / 8x8dct=0 / cqm=0 / deadzone=21,11 / fast_pskip=1 / chroma_qp_offset=-2 / threads=6 / lookahead_threads=1 / sliced_threads=0 / nr=0 / decimate=1 / interlaced=0 / bluray_compat=0 / stitchable=1 / constrained_intra=0 / bframes=2 / b_pyramid=0 / b_adapt=2 / b_bias=0 / direct=3 / weightb=1 / open_gop=0 / weightp=2 / keyint=48 / keyint_min=25 / scenecut=0 / intra_refresh=0 / rc_lookahead=48 / rc=2pass / mbtree=1 / bitrate=5800 / ratetol=1.0 / qcomp=0.50 / qpmin=6 / qpmax=51 / qpstep=4 / cplxblur=20.0 / qblur=0.5 / vbv_maxrate=8700 / vbv_bufsize=11600 / nal_hrd=vbr / filler=0 / ip_ratio=1.40 / aq=1:1.00
  27. Default                                  : Yes
  28. Forced                                   : No
  29. Audio
  30. ID                                       : 2
  31. Format                                   : AC-3
  32. Format/Info                              : Audio Coding 3
  33. Commercial name                          : Dolby Digital
  34. Codec ID                                 : A_AC3
  35. Duration                                 : 1 h 27 min
  36. Bit rate mode                            : Constant
  37. Bit rate                                 : 384 kb/s
  38. Channel(s)                               : 6 channels
  39. Channel layout                           : L R C LFE Ls Rs
  40. Sampling rate                            : 48.0 kHz
  41. Frame rate                               : 31.250 FPS (1536 SPF)
  42. Compression mode                         : Lossy
  43. Stream size                              : 240 MiB (6%)
  44. Title                                    : English
  45. Language                                 : English
  46. Service kind                             : Complete Main
  47. Default                                  : Yes
  48. Forced                                   : No
  49. Text #1
  50. ID                                       : 3
  51. Format                                   : UTF-8
  52. Codec ID                                 : S_TEXT/UTF8
  53. Codec ID/Info                            : UTF-8 Plain Text
  54. Duration                                 : 1 h 20 min
  55. Bit rate                                 : 44 b/s
  56. Count of elements                        : 780
  57. Stream size                              : 26.1 KiB (0%)
  58. Language                                 : English
  59. Default                                  : Yes
  60. Forced                                   : No
  61. Text #2
  62. ID                                       : 4
  63. Format                                   : UTF-8
  64. Codec ID                                 : S_TEXT/UTF8
  65. Codec ID/Info                            : UTF-8 Plain Text
  66. Duration                                 : 1 h 25 min
  67. Bit rate                                 : 50 b/s
  68. Count of elements                        : 941
  69. Stream size                              : 31.2 KiB (0%)
  70. Title                                    : SDH
  71. Language                                 : English
  72. Default                                  : No
  73. Forced                                   : No
  74. Text #3
  75. ID                                       : 5
  76. Format                                   : UTF-8
  77. Codec ID                                 : S_TEXT/UTF8
  78. Codec ID/Info                            : UTF-8 Plain Text
  79. Duration                                 : 1 h 25 min
  80. Bit rate                                 : 66 b/s
  81. Count of elements                        : 786
  82. Stream size                              : 41.4 KiB (0%)
  83. Language                                 : Arabic
  84. Default                                  : No
  85. Forced                                   : No
  86. Text #4
  87. ID                                       : 6
  88. Format                                   : UTF-8
  89. Codec ID                                 : S_TEXT/UTF8
  90. Codec ID/Info                            : UTF-8 Plain Text
  91. Duration                                 : 1 h 24 min
  92. Bit rate                                 : 39 b/s
  93. Count of elements                        : 765
  94. Stream size                              : 24.8 KiB (0%)
  95. Language                                 : Danish
  96. Default                                  : No
  97. Forced                                   : No
  98. Text #5
  99. ID                                       : 7
  100. Format                                   : UTF-8
  101. Codec ID                                 : S_TEXT/UTF8
  102. Codec ID/Info                            : UTF-8 Plain Text
  103. Duration                                 : 1 h 25 min
  104. Bit rate                                 : 38 b/s
  105. Count of elements                        : 739
  106. Stream size                              : 23.8 KiB (0%)
  107. Language                                 : German
  108. Default                                  : No
  109. Forced                                   : No
  110. Text #6
  111. ID                                       : 8
  112. Format                                   : UTF-8
  113. Codec ID                                 : S_TEXT/UTF8
  114. Codec ID/Info                            : UTF-8 Plain Text
  115. Duration                                 : 1 h 25 min
  116. Bit rate                                 : 67 b/s
  117. Count of elements                        : 786
  118. Stream size                              : 42.2 KiB (0%)
  119. Language                                 : Greek
  120. Default                                  : No
  121. Forced                                   : No
  122. Text #7
  123. ID                                       : 9
  124. Format                                   : UTF-8
  125. Codec ID                                 : S_TEXT/UTF8
  126. Codec ID/Info                            : UTF-8 Plain Text
  127. Duration                                 : 1 h 25 min
  128. Bit rate                                 : 38 b/s
  129. Count of elements                        : 780
  130. Stream size                              : 24.3 KiB (0%)
  131. Language                                 : Spanish
  132. Default                                  : No
  133. Forced                                   : No
  134. Text #8
  135. ID                                       : 10
  136. Format                                   : UTF-8
  137. Codec ID                                 : S_TEXT/UTF8
  138. Codec ID/Info                            : UTF-8 Plain Text
  139. Duration                                 : 1 h 25 min
  140. Bit rate                                 : 40 b/s
  141. Count of elements                        : 784
  142. Stream size                              : 25.1 KiB (0%)
  143. Title                                    : European
  144. Language                                 : Spanish
  145. Default                                  : No
  146. Forced                                   : No
  147. Text #9
  148. ID                                       : 11
  149. Format                                   : UTF-8
  150. Codec ID                                 : S_TEXT/UTF8
  151. Codec ID/Info                            : UTF-8 Plain Text
  152. Duration                                 : 1 h 24 min
  153. Bit rate                                 : 36 b/s
  154. Count of elements                        : 773
  155. Stream size                              : 22.4 KiB (0%)
  156. Language                                 : Finnish
  157. Default                                  : No
  158. Forced                                   : No
  159. Text #10
  160. ID                                       : 12
  161. Format                                   : UTF-8
  162. Codec ID                                 : S_TEXT/UTF8
  163. Codec ID/Info                            : UTF-8 Plain Text
  164. Duration                                 : 1 h 24 min
  165. Bit rate                                 : 35 b/s
  166. Count of elements                        : 764
  167. Stream size                              : 22.4 KiB (0%)
  168. Language                                 : French
  169. Default                                  : No
  170. Forced                                   : No
  171. Text #11
  172. ID                                       : 13
  173. Format                                   : UTF-8
  174. Codec ID                                 : S_TEXT/UTF8
  175. Codec ID/Info                            : UTF-8 Plain Text
  176. Duration                                 : 1 h 25 min
  177. Bit rate                                 : 61 b/s
  178. Count of elements                        : 787
  179. Stream size                              : 38.6 KiB (0%)
  180. Language                                 : Hebrew
  181. Default                                  : No
  182. Forced                                   : No
  183. Text #12
  184. ID                                       : 14
  185. Format                                   : UTF-8
  186. Codec ID                                 : S_TEXT/UTF8
  187. Codec ID/Info                            : UTF-8 Plain Text
  188. Duration                                 : 1 h 22 min
  189. Bit rate                                 : 39 b/s
  190. Count of elements                        : 768
  191. Stream size                              : 23.9 KiB (0%)
  192. Language                                 : Italian
  193. Default                                  : No
  194. Forced                                   : No
  195. Text #13
  196. ID                                       : 15
  197. Format                                   : UTF-8
  198. Codec ID                                 : S_TEXT/UTF8
  199. Codec ID/Info                            : UTF-8 Plain Text
  200. Duration                                 : 1 h 25 min
  201. Bit rate                                 : 34 b/s
  202. Count of elements                        : 862
  203. Stream size                              : 21.3 KiB (0%)
  204. Language                                 : Japanese
  205. Default                                  : No
  206. Forced                                   : No
  207. Text #14
  208. ID                                       : 16
  209. Format                                   : UTF-8
  210. Codec ID                                 : S_TEXT/UTF8
  211. Codec ID/Info                            : UTF-8 Plain Text
  212. Duration                                 : 1 h 25 min
  213. Bit rate                                 : 42 b/s
  214. Count of elements                        : 787
  215. Stream size                              : 26.4 KiB (0%)
  216. Language                                 : Korean
  217. Default                                  : No
  218. Forced                                   : No
  219. Text #15
  220. ID                                       : 17
  221. Format                                   : UTF-8
  222. Codec ID                                 : S_TEXT/UTF8
  223. Codec ID/Info                            : UTF-8 Plain Text
  224. Duration                                 : 1 h 25 min
  225. Bit rate                                 : 37 b/s
  226. Count of elements                        : 770
  227. Stream size                              : 23.5 KiB (0%)
  228. Language                                 : Norwegian Bokmal
  229. Default                                  : No
  230. Forced                                   : No
  231. Text #16
  232. ID                                       : 18
  233. Format                                   : UTF-8
  234. Codec ID                                 : S_TEXT/UTF8
  235. Codec ID/Info                            : UTF-8 Plain Text
  236. Duration                                 : 1 h 24 min
  237. Bit rate                                 : 34 b/s
  238. Count of elements                        : 731
  239. Stream size                              : 21.3 KiB (0%)
  240. Language                                 : Dutch
  241. Default                                  : No
  242. Forced                                   : No
  243. Text #17
  244. ID                                       : 19
  245. Format                                   : UTF-8
  246. Codec ID                                 : S_TEXT/UTF8
  247. Codec ID/Info                            : UTF-8 Plain Text
  248. Duration                                 : 1 h 24 min
  249. Bit rate                                 : 35 b/s
  250. Count of elements                        : 761
  251. Stream size                              : 22.4 KiB (0%)
  252. Language                                 : Polish
  253. Default                                  : No
  254. Forced                                   : No
  255. Text #18
  256. ID                                       : 20
  257. Format                                   : UTF-8
  258. Codec ID                                 : S_TEXT/UTF8
  259. Codec ID/Info                            : UTF-8 Plain Text
  260. Duration                                 : 1 h 24 min
  261. Bit rate                                 : 35 b/s
  262. Count of elements                        : 692
  263. Stream size                              : 21.9 KiB (0%)
  264. Language                                 : Portuguese
  265. Default                                  : No
  266. Forced                                   : No
  267. Text #19
  268. ID                                       : 21
  269. Format                                   : UTF-8
  270. Codec ID                                 : S_TEXT/UTF8
  271. Codec ID/Info                            : UTF-8 Plain Text
  272. Duration                                 : 1 h 25 min
  273. Bit rate                                 : 39 b/s
  274. Count of elements                        : 783
  275. Stream size                              : 24.5 KiB (0%)
  276. Title                                    : Brazilian
  277. Language                                 : Portuguese
  278. Default                                  : No
  279. Forced                                   : No
  280. Text #20
  281. ID                                       : 22
  282. Format                                   : UTF-8
  283. Codec ID                                 : S_TEXT/UTF8
  284. Codec ID/Info                            : UTF-8 Plain Text
  285. Duration                                 : 1 h 24 min
  286. Bit rate                                 : 42 b/s
  287. Count of elements                        : 782
  288. Stream size                              : 26.6 KiB (0%)
  289. Language                                 : Romanian
  290. Default                                  : No
  291. Forced                                   : No
  292. Text #21
  293. ID                                       : 23
  294. Format                                   : UTF-8
  295. Codec ID                                 : S_TEXT/UTF8
  296. Codec ID/Info                            : UTF-8 Plain Text
  297. Duration                                 : 1 h 24 min
  298. Bit rate                                 : 39 b/s
  299. Count of elements                        : 780
  300. Stream size                              : 24.6 KiB (0%)
  301. Language                                 : Swedish
  302. Default                                  : No
  303. Forced                                   : No
  304. Text #22
  305. ID                                       : 24
  306. Format                                   : UTF-8
  307. Codec ID                                 : S_TEXT/UTF8
  308. Codec ID/Info                            : UTF-8 Plain Text
  309. Duration                                 : 1 h 25 min
  310. Bit rate                                 : 98 b/s
  311. Count of elements                        : 787
  312. Stream size                              : 61.8 KiB (0%)
  313. Language                                 : Thai
  314. Default                                  : No
  315. Forced                                   : No
  316. Text #23
  317. ID                                       : 25
  318. Format                                   : UTF-8
  319. Codec ID                                 : S_TEXT/UTF8
  320. Codec ID/Info                            : UTF-8 Plain Text
  321. Duration                                 : 1 h 24 min
  322. Bit rate                                 : 39 b/s
  323. Count of elements                        : 777
  324. Stream size                              : 24.7 KiB (0%)
  325. Language                                 : Turkish
  326. Default                                  : No
  327. Forced                                   : No
  328. Text #24
  329. ID                                       : 26
  330. Format                                   : UTF-8
  331. Codec ID                                 : S_TEXT/UTF8
  332. Codec ID/Info                            : UTF-8 Plain Text
  333. Duration                                 : 1 h 25 min
  334. Bit rate                                 : 36 b/s
  335. Count of elements                        : 787
  336. Stream size                              : 22.5 KiB (0%)
  337. Title                                    : Simplified
  338. Language                                 : Chinese
  339. Default                                  : No
  340. Forced                                   : No
  341. Text #25
  342. ID                                       : 27
  343. Format                                   : UTF-8
  344. Codec ID                                 : S_TEXT/UTF8
  345. Codec ID/Info                            : UTF-8 Plain Text
  346. Duration                                 : 1 h 25 min
  347. Bit rate                                 : 33 b/s
  348. Count of elements                        : 705
  349. Stream size                              : 20.7 KiB (0%)
  350. Title                                    : Traditional
  351. Language                                 : Chinese
  352. Default                                  : No
  353. Forced                                   : No
复制代码






                                       
                                       

                                       
                                       
                                       




回复

使用道具 举报

懒得打字嘛,点击右侧快捷回复 【右侧内容,后台自定义】
您需要登录后才可以回帖 登录 | 立即加入

本版积分规则

Archiver|小黑屋| 蓝光电影网 |网站地图

Copyright © 2021 Comsenz Inc. Powered by 蓝光电影网

蓝光电影网

本站内容由用户自主分享和转载自互联网,转载目的在于传递更多信息,并不代表本网赞同其观点和对其真实性负责。

如有侵权、违反国家法律政策行为,请联系我们,我们会第一时间及时清除和处理!

举报反馈邮箱:[email protected]

快速回复 返回顶部 返回列表