找回密码

蓝光电影网

查看: 12|回复: 0

[爱情] 冰封恋爱 Frozen.in.Love.2018.1080p.AMZN.WEBRip.DDP2.0.x264-ABM 5.86GB

[复制链接]
蓝光币
515
发表于 2019-7-31 03:14:23 | 显示全部楼层 |阅读模式


◎译  名 冰封恋爱
◎片  名 Frozen in Love
◎年  代 2018
◎产  地 美国
◎类  别 恋爱
◎语  言 英语
◎上映日期 2018-01-13(美国)
◎IMDb评分  6.8/10 from 1047 users
◎IMDb链接  http://www.imdb.com/title/tt7756492
◎豆瓣评分 0/10 from 0 users
◎豆瓣链接 https://movie.douban.com/subject/27666856/
◎导  演 Scott Smith
◎编  剧 Rick Garman / 瑞切尔·蕾·库克 Rachael Leigh Cook
◎主  演 瑞切尔·蕾·库克 Rachael Leigh Cook
      尼尔迈特 Niall Matter
      Sandy Sidhu
      麦迪逊·史姑娘 Madison Smith
      塔米·吉祥斯 Tammy Gillis
      Susan Hogan
      基斯·麦克科基尼 Keith MacKechnie
      小维克多·津克 Victor Zinck Jr.
      Mason McKenzie

◎标  签 Hallmark
◎简  介  
  When struggling bookstore owner Mary and the bad boy of professional hockey, Adam, are teamed together to help facilitate an image makeover for the other, they soon realize that opposites attract and they find themselves unexpectedly frozen in love.
当苦苦挣扎的书店老板玛丽和职业冰球的坏男孩,亚当,结合在一路来帮助促进其他的形象,他们很称心识到,同性相吸,他们发现自己居然已经相爱。
  1. Video
  2. ID                                       : 1
  3. Format                                   : AVC
  4. Format/Info                              : Advanced Video Codec
  5. Format profile                           : [email protected]
  6. Format settings                          : CABAC / 4 Ref Frames
  7. Format settings, CABAC                   : Yes
  8. Format settings, Reference frames        : 4 frames
  9. Codec ID                                 : V_MPEG4/ISO/AVC
  10. Duration                                 : 1 h 24 min
  11. Bit rate mode                            : Constant
  12. Bit rate                                 : 10 000 kb/s
  13. Width                                    : 1 920 pixels
  14. Height                                   : 1 080 pixels
  15. Display aspect ratio                     : 16:9
  16. Frame rate mode                          : Constant
  17. Frame rate                               : 23.976 (24000/1001) FPS
  18. Color space                              : YUV
  19. Chroma subsampling                       : 4:2:0
  20. Bit depth                                : 8 bits
  21. Scan type                                : Progressive
  22. Bits/(Pixel*Frame)                       : 0.201
  23. Stream size                              : 5.61 GiB (96%)
  24. Language                                 : English
  25. Default                                  : Yes
  26. Forced                                   : No
  27. Color range                              : Limited
  28. Color primaries                          : BT.709
  29. Transfer characteristics                 : BT.709
  30. Matrix coefficients                      : BT.709
  31. Audio
  32. ID                                       : 2
  33. Format                                   : E-AC-3
  34. Format/Info                              : Enhanced AC-3
  35. Commercial name                          : Dolby Digital Plus
  36. Codec ID                                 : A_EAC3
  37. Duration                                 : 1 h 24 min
  38. Bit rate mode                            : Constant
  39. Bit rate                                 : 224 kb/s
  40. Channel(s)                               : 2 channels
  41. Channel layout                           : L R
  42. Sampling rate                            : 48.0 kHz
  43. Frame rate                               : 31.250 FPS (1536 SPF)
  44. Compression mode                         : Lossy
  45. Stream size                              : 135 MiB (2%)
  46. Language                                 : English
  47. Service kind                             : Complete Main
  48. Default                                  : Yes
  49. Forced                                   : No
  50. Text
  51. ID                                       : 3
  52. Format                                   : UTF-8
  53. Codec ID                                 : S_TEXT/UTF8
  54. Codec ID/Info                            : UTF-8 Plain Text
  55. Language                                 : English
  56. Default                                  : No
  57. Forced                                   : No
复制代码






                                       
                                       

                                       
                                       
                                       




回复

使用道具 举报

懒得打字嘛,点击右侧快捷回复 【右侧内容,后台自定义】
您需要登录后才可以回帖 登录 | 立即加入

本版积分规则

Archiver|小黑屋| 蓝光电影网 |网站地图

Copyright © 2021 Comsenz Inc. Powered by 蓝光电影网

蓝光电影网

本站内容由用户自主分享和转载自互联网,转载目的在于传递更多信息,并不代表本网赞同其观点和对其真实性负责。

如有侵权、违反国家法律政策行为,请联系我们,我们会第一时间及时清除和处理!

举报反馈邮箱:[email protected]

快速回复 返回顶部 返回列表