找回密码

蓝光电影网

查看: 32|回复: 0

[爱情] 十二棵圣诞树 The.Twelve.Trees.of.Christmas.2013.1080p.AMZN.WEBRip.DDP2.0.x264-ABM 7.08GB

[复制链接]
蓝光币
515
发表于 2019-7-29 13:14:24 | 显示全部楼层 |阅读模式


◎译  名 十二棵圣诞树
◎片  名 Twelve Trees of Christmas
◎年  代 2013
◎产  地 美国
◎类  别 恋爱
◎语  言 英语
◎上映日期 2013-11-16
◎IMDb评分  6.1/10 from 703 users
◎IMDb链接  http://www.imdb.com/title/tt3341268
◎豆瓣评分 5.6/10 from 300 users
◎豆瓣链接 https://movie.douban.com/subject/25790864/
◎导  演 Michael DeCarlo
◎编  剧 Kevin Commins
◎主  演 林蒂·布丝 Lindy Booth
      罗宾·邓恩 Robin Dunne
      梅兰妮·布朗 Melanie Brown

◎标  签 美国 | 温情 | 圣诞 | 恋爱 | 2013 | 电影 | 美国电影 | 温馨的圣诞题材总是能感动听
◎简  介  
  活跃开畅的雪儿·詹姆森是桑那斯图书馆的儿童区图书治理员。桑那斯图书馆对她有着特此外意义,小的时辰雪儿常被父亲带去图书馆,他们天天一路穿过那些门洞,走进阿谁包括人间万物的奇异地方。在那边,她爱上了书籍,并发愤成为一位图书治理员,桑那斯图书馆就是她的全数。
祖父归天后,托尼·桑那斯接收了桑那斯团体。年轻有为,边幅英俊,美满是成功人士的典型。但是,他和桑那斯家属却也有着不为人知的懊恼。从小被祖父严厉管束没有自在,母亲归天后父亲又不满祖父的刚愎自用分开。是以,托尼渴望着向他人证实自己可以做得像祖父一样优异。他身材里流淌着桑那斯家属的血液,为了成功不惜一切,撤除桑那斯图书馆改成室第大赚一笔就成了他的必定挑选。
一面是把图书馆视为生命的文艺姑娘,一面是迟疑满志的明智青年,冲突的双方相遇了。
为了拯救图书馆,雪儿举行了一场平安夜的圣诞树装潢角逐,试图感动桑那斯夫人——即托尼的祖母。许很多多对图书馆有着特别豪情的人加入了角逐,而托尼为了保住自己的工程也报名加入了。
这个平安夜,究竟谁的圣诞树能感动祖母,又究竟谁能感动谁,温馨的圣诞电影《十二棵圣诞树》起头了...(文:兰丰@深影字幕组
  1. Video
  2. ID                                       : 1
  3. Format                                   : AVC
  4. Format/Info                              : Advanced Video Codec
  5. Format profile                           : [email protected]
  6. Format settings                          : CABAC / 4 Ref Frames
  7. Format settings, CABAC                   : Yes
  8. Format settings, Reference frames        : 4 frames
  9. Codec ID                                 : V_MPEG4/ISO/AVC
  10. Duration                                 : 1 h 26 min
  11. Bit rate mode                            : Variable
  12. Bit rate                                 : 11.5 Mb/s
  13. Maximum bit rate                         : 15.0 Mb/s
  14. Width                                    : 1 920 pixels
  15. Height                                   : 1 080 pixels
  16. Display aspect ratio                     : 16:9
  17. Frame rate mode                          : Constant
  18. Frame rate                               : 23.976 (24000/1001) FPS
  19. Color space                              : YUV
  20. Chroma subsampling                       : 4:2:0
  21. Bit depth                                : 8 bits
  22. Scan type                                : Progressive
  23. Bits/(Pixel*Frame)                       : 0.232
  24. Stream size                              : 6.95 GiB (98%)
  25. Default                                  : Yes
  26. Forced                                   : No
  27. Color range                              : Limited
  28. Color primaries                          : BT.709
  29. Transfer characteristics                 : BT.709
  30. Matrix coefficients                      : BT.709
  31. Audio
  32. ID                                       : 2
  33. Format                                   : E-AC-3
  34. Format/Info                              : Enhanced AC-3
  35. Commercial name                          : Dolby Digital Plus
  36. Codec ID                                 : A_EAC3
  37. Duration                                 : 1 h 26 min
  38. Bit rate mode                            : Constant
  39. Bit rate                                 : 224 kb/s
  40. Channel(s)                               : 2 channels
  41. Channel layout                           : L R
  42. Sampling rate                            : 48.0 kHz
  43. Frame rate                               : 31.250 FPS (1536 SPF)
  44. Compression mode                         : Lossy
  45. Stream size                              : 138 MiB (2%)
  46. Language                                 : English
  47. Service kind                             : Complete Main
  48. Default                                  : Yes
  49. Forced                                   : No
  50. Text
  51. ID                                       : 3
  52. Format                                   : UTF-8
  53. Codec ID                                 : S_TEXT/UTF8
  54. Codec ID/Info                            : UTF-8 Plain Text
  55. Duration                                 : 1 h 25 min
  56. Bit rate                                 : 84 b/s
  57. Count of elements                        : 1925
  58. Stream size                              : 53.0 KiB (0%)
  59. Language                                 : English
  60. Default                                  : No
  61. Forced                                   : No
复制代码






                                       
                                       

                                       
                                       
                                       




回复

使用道具 举报

懒得打字嘛,点击右侧快捷回复 【右侧内容,后台自定义】
您需要登录后才可以回帖 登录 | 立即加入

本版积分规则

Archiver|小黑屋| 蓝光电影网 |网站地图

Copyright © 2021 Comsenz Inc. Powered by 蓝光电影网

蓝光电影网

本站内容由用户自主分享和转载自互联网,转载目的在于传递更多信息,并不代表本网赞同其观点和对其真实性负责。

如有侵权、违反国家法律政策行为,请联系我们,我们会第一时间及时清除和处理!

举报反馈邮箱:[email protected]

快速回复 返回顶部 返回列表