找回密码

蓝光电影网

查看: 20|回复: 0

[爱情] L体日记/L体主义者日记 Diary.of.a.Nudist.1961.1080p.WEBRip.x264-iNTENSO 3.37GB

[复制链接]
蓝光币
515
发表于 2019-10-7 05:05:02 | 显示全部楼层 |阅读模式


◎译  名 L体日志 / L体主义者日志
◎片  名 Diary of a Nudist
◎年  代 1961
◎产  地 美国
◎类  别 恋爱
◎语  言 英语
◎上映日期 1966-10-14
◎IMDb评分  4.0/10 from 371 users
◎IMDb链接  http://www.imdb.com/title/tt0054809
◎豆瓣评分 0/10 from 0 users
◎豆瓣链接 https://movie.douban.com/subject/2133842/
◎导  演 Doris Wishman
◎编  剧 桃乐丝·维斯曼 Doris Wishman
◎主  演 达维·德克尔 Davee Decker
       Norman Casserly
       Dolores Carlos

◎标  签 情色 | 美国 | DorisWishman | 剥削 | 美国电影 | 可骇 | Doris_Wishman
◎简  介  
  Newspaper editor Arthur Sherwood is on a hunting trip when he accidentally stumbles upon a nudist camp in the woods. He is very much shocked by this and decides to send reporter Stacy Taylor to the camp so she can write an expose on the camp and have it shut down. However, much to her surprise, Stacy finds that she enjoys the nudist lifestyle and writes some very positive articles on her experiences, which doesn't sit well with Arthur. Arthur then decides to join the camp himself and write his own story.
  1. Video
  2. ID : 1
  3. Format : AVC
  4. Format/Info : Advanced Video Codec
  5. Format profile : [email protected]
  6. Format settings : CABAC / 4 Ref Frames
  7. Format settings, CABAC : Yes
  8. Format settings, Reference frames : 4 frames
  9. Codec ID : V_MPEG4/ISO/AVC
  10. Duration : 49 min 37 s
  11. Bit rate : 9 643 kb/s
  12. Width : 1 920 pixels
  13. Height : 1 080 pixels
  14. Display aspect ratio : 16:9
  15. Frame rate mode : Constant
  16. Frame rate : 23.976 (24000/1001) FPS
  17. Color space : YUV
  18. Chroma subsampling : 4:2:0
  19. Bit depth : 8 bits
  20. Scan type : Progressive
  21. Bits/(Pixel*Frame) : 0.194
  22. Stream size : 3.34 GiB (99%)
  23. Writing library : x264 core 152 r2851 ba24899
  24. Encoding settings : cabac=1 / ref=4 / deblock=1:-3:-3 / analyse=0x3:0x133 / me=umh / subme=11 / psy=1 / psy_rd=1.05:0.15 / mixed_ref=1 / me_range=16 / chroma_me=1 / trellis=2 / 8x8dct=1 / cqm=0 / deadzone=21,11 / fast_pskip=0 / chroma_qp_offset=-3 / threads=12 / lookahead_threads=1 / sliced_threads=0 / nr=0 / decimate=1 / interlaced=0 / bluray_compat=0 / constrained_intra=0 / bframes=3 / b_pyramid=2 / b_adapt=2 / b_bias=0 / direct=3 / weightb=1 / open_gop=0 / weightp=2 / keyint=250 / keyint_min=24 / scenecut=40 / intra_refresh=0 / rc_lookahead=50 / rc=crf / mbtree=1 / crf=17.0 / qcomp=0.60 / qpmin=0 / qpmax=69 / qpstep=4 / ip_ratio=1.40 / aq=3:0.65
  25. Language : English
  26. Default : Yes
  27. Forced : No
  28. Audio
  29. ID : 2
  30. Format : AAC LC
  31. Format/Info : Advanced Audio Codec Low Complexity
  32. Codec ID : A_AAC-2
  33. Duration : 49 min 35 s
  34. Bit rate : 68.0 kb/s
  35. Channel(s) : 1 channel
  36. Channel layout : C
  37. Sampling rate : 48.0 kHz
  38. Frame rate : 46.875 FPS (1024 SPF)
  39. Compression mode : Lossy
  40. Stream size : 24.1 MiB (1%)
  41. Language : English
  42. Default : Yes
  43. Forced : No
  44. Menu
  45. 00:00:00.054 : en:00:00:00.054
复制代码




                                       
                                       

                                       
                                       
                                       




回复

使用道具 举报

懒得打字嘛,点击右侧快捷回复 【右侧内容,后台自定义】
您需要登录后才可以回帖 登录 | 立即加入

本版积分规则

Archiver|小黑屋| 蓝光电影网 |网站地图

Copyright © 2021 Comsenz Inc. Powered by 蓝光电影网

蓝光电影网

本站内容由用户自主分享和转载自互联网,转载目的在于传递更多信息,并不代表本网赞同其观点和对其真实性负责。

如有侵权、违反国家法律政策行为,请联系我们,我们会第一时间及时清除和处理!

举报反馈邮箱:[email protected]

快速回复 返回顶部 返回列表