找回密码

蓝光电影网

查看: 37|回复: 0

[爱情] 小金童 The.Golden.Boys.2008.1080p.WEBRip.x264-RARBG 1.85GB

[复制链接]
蓝光币
515
发表于 2020-4-4 03:39:59 | 显示全部楼层 |阅读模式


◎译  名 小金童 / The Golden Boys
◎片  名 The Golden Boys
◎年  代 2008
◎产  地 美国
◎类  别 恋爱
◎语  言 英语
◎上映日期 2007-11-03
◎IMDb评分  6.0/10 from 470 users
◎IMDb链接  https://www.imdb.com/title/tt0882969
◎豆瓣评分 7.0/10 from 137 users
◎豆瓣链接 https://movie.douban.com/subject/2297002/
◎片  长 USA: 97 分钟
◎导  演 Daniel Adams
◎编  剧 Daniel Adams
◎主  演 大卫·卡拉丁 David Carradine
       雷普·汤恩 Rip Torn
       布鲁斯·邓恩 Bruce Dern
       玛瑞儿·海明威 Mariel Hemingway
       查尔斯·德恩 Charles Durning
       约翰·萨维奇 John Savage
       朱丽·哈里斯 Julie Harris

◎标  签 恋爱 | 美国电影 | 美国 | 我看过的电影 | 我看过的英语电影 | 剧情 | 小金童 | 电影
◎简  介  
  故事发生在科德角,世纪之交,三位退伍水兵船永生活在一路。为了让他们的屋子连结整洁他们想出来的唯一方式是他们其中的一位成婚。但是题目出现了:三小我都不想要成婚。最初他们决议抛硬币来决议而杰瑞船主输了。他们在一份报纸上为他登了一个征婚广告。未几一个来自南塔吉特的名为玛莎的女人回应了广告。杰瑞船主顿时临阵畏缩。
  在连续串的搞笑事务以后,佩里兹船主想出了一个拯救的计划,先用缓兵之计把玛莎留下,而一边敦促杰瑞船主鼓足勇气去向她求婚。但是最初却是泽布船主爱上了玛莎并向她求婚。杰瑞船主起头有点没法接管这个成果,可是很快他就至心祝愿他朋友了。
  1. Video
  2. ID                                       : 1
  3. Format                                   : AVC
  4. Format/Info                              : Advanced Video Codec
  5. Format profile                           : [email protected]
  6. Format settings                          : CABAC / 4 Ref Frames
  7. Format settings, CABAC                   : Yes
  8. Format settings, Reference frames        : 4 frames
  9. Codec ID                                 : avc1
  10. Codec ID/Info                            : Advanced Video Coding
  11. Duration                                 : 1 h 37 min
  12. Source duration                          : 1 h 37 min
  13. Bit rate                                 : 2 500 kb/s
  14. Width                                    : 1 920 pixels
  15. Height                                   : 1 040 pixels
  16. Display aspect ratio                     : 1.85:1
  17. Frame rate mode                          : Constant
  18. Frame rate                               : 23.976 (23976/1000/189150) FPS
  19. Color space                              : YUV
  20. Chroma subsampling                       : 4:2:0
  21. Bit depth                                : 8 bits
  22. Scan type                                : Progressive
  23. Bits/(Pixel*Frame)                       : 0.052
  24. Stream size                              : 1.70 GiB (92%)
  25. Source stream size                       : 1.70 GiB (92%)
  26. Writing library                          : x264 core 152 r2851M ba24899
  27. Encoding settings                        : cabac=1 / ref=4 / deblock=1:-1:-1 / analyse=0x3:0x113 / me=umh / subme=9 / psy=1 / psy_rd=1.00:0.15 / mixed_ref=1 / me_range=24 / chroma_me=1 / trellis=2 / 8x8dct=1 / cqm=0 / deadzone=21,11 / fast_pskip=1 / chroma_qp_offset=-3 / threads=16 / lookahead_threads=4 / sliced_threads=0 / nr=0 / decimate=1 / interlaced=0 / bluray_compat=0 / constrained_intra=0 / bframes=3 / b_pyramid=2 / b_adapt=2 / b_bias=0 / direct=3 / weightb=1 / open_gop=0 / weightp=2 / keyint=250 / keyint_min=25 / scenecut=40 / intra_refresh=0 / rc_lookahead=50 / rc=2pass / mbtree=1 / bitrate=2500 / ratetol=1.0 / qcomp=0.60 / qpmin=0 / qpmax=69 / qpstep=4 / cplxblur=20.0 / qblur=0.5 / vbv_maxrate=31250 / vbv_bufsize=31250 / nal_hrd=none / filler=0 / ip_ratio=1.40 / aq=3:1.00
  28. Encoded date                             : UTC 2020-04-03 15:59:03
  29. Tagged date                              : UTC 2020-04-03 15:59:03
  30. Codec configuration box                  : avcC
  31. Audio
  32. ID                                       : 2
  33. Format                                   : AAC LC
  34. Format/Info                              : Advanced Audio Codec Low Complexity
  35. Codec ID                                 : mp4a-40-2
  36. Duration                                 : 1 h 37 min
  37. Duration_LastFrame                       : -11 ms
  38. Bit rate mode                            : Constant
  39. Bit rate                                 : 224 kb/s
  40. Channel(s)                               : 2 channels
  41. Channel layout                           : L R
  42. Sampling rate                            : 48.0 kHz
  43. Frame rate                               : 46.875 FPS (1024 SPF)
  44. Compression mode                         : Lossy
  45. Stream size                              : 156 MiB (8%)
  46. Language                                 : English
  47. Default                                  : Yes
  48. Alternate group                          : 1
  49. Encoded date                             : UTC 2020-04-03 15:59:03
  50. Tagged date                              : UTC 2020-04-03 15:59:03
复制代码






                                       
                                       

                                       
                                       
                                       




回复

使用道具 举报

懒得打字嘛,点击右侧快捷回复 【右侧内容,后台自定义】
您需要登录后才可以回帖 登录 | 立即加入

本版积分规则

Archiver|小黑屋| 蓝光电影网 |网站地图

Copyright © 2021 Comsenz Inc. Powered by 蓝光电影网

蓝光电影网

本站内容由用户自主分享和转载自互联网,转载目的在于传递更多信息,并不代表本网赞同其观点和对其真实性负责。

如有侵权、违反国家法律政策行为,请联系我们,我们会第一时间及时清除和处理!

举报反馈邮箱:[email protected]

快速回复 返回顶部 返回列表