找回密码

蓝光电影网

查看: 25|回复: 0

[剧情] 布朗运动 Brownian.Movement.2010.1080p.AMZN.WEBRip.DD5.1.x264-Cinefeel 6.34GB

[复制链接]
蓝光币
519
发表于 2021-8-20 01:20:34 | 显示全部楼层 |阅读模式


◎译  名 布朗活动
◎片  名 Brownian Movement
◎年  代 2010
◎产  地 荷兰
◎类  别 剧情
◎语  言 英语
◎上映日期 
◎IMDb评分  4.9/10 from 1083 users
◎IMDb链接  https://www.imdb.com/title/tt1529240/
◎豆瓣评分 5.9/10 from 63 users
◎豆瓣链接 https://movie.douban.com/subject/4097127/
◎片  长 96分钟
◎导  演 娜诺克·利奥波德 Nanouk Leopold
◎编  剧 娜诺克·利奥波德 Nanouk Leopold
◎主  演 莎宾·蒂莫提欧 Sabine Timoteo
       Ergun Simsek
       Frieda Pittoors
       德拉甘·巴克玛 Dragan Bakema
       桑德拉·惠勒 Sandra Hüller
◎标  签 荷兰 | 情色 | 剧情 | 荷兰电影 | 文艺 | 2010 | 恋爱 | 德国
◎简  介


  暂无相关剧情先容
  1. Video
  2. ID                                       : 1
  3. Format                                   : AVC
  4. Format/Info                              : Advanced Video Codec
  5. Format profile                           : [email protected]
  6. Format settings                          : CABAC / 4 Ref Frames
  7. Format settings, CABAC                   : Yes
  8. Format settings, Reference frames        : 4 frames
  9. Codec ID                                 : V_MPEG4/ISO/AVC
  10. Duration                                 : 1 h 36 min
  11. Bit rate mode                            : Constant
  12. Bit rate                                 : 8 945 kb/s
  13. Nominal bit rate                         : 10 000 kb/s
  14. Width                                    : 1 920 pixels
  15. Height                                   : 816 pixels
  16. Display aspect ratio                     : 2.35:1
  17. Frame rate mode                          : Constant
  18. Frame rate                               : 25.000 FPS
  19. Color space                              : YUV
  20. Chroma subsampling                       : 4:2:0
  21. Bit depth                                : 8 bits
  22. Scan type                                : Progressive
  23. Bits/(Pixel*Frame)                       : 0.228
  24. Stream size                              : 6.04 GiB (95%)
  25. Language                                 : English
  26. Default                                  : Yes
  27. Forced                                   : No
  28. Color range                              : Limited
  29. Color primaries                          : BT.709
  30. Transfer characteristics                 : BT.709
  31. Matrix coefficients                      : BT.709
  32. Audio
  33. ID                                       : 2
  34. Format                                   : AC-3
  35. Format/Info                              : Audio Coding 3
  36. Commercial name                          : Dolby Digital
  37. Codec ID                                 : A_AC3
  38. Duration                                 : 1 h 36 min
  39. Bit rate mode                            : Constant
  40. Bit rate                                 : 448 kb/s
  41. Channel(s)                               : 6 channels
  42. Channel layout                           : L R C LFE Ls Rs
  43. Sampling rate                            : 48.0 kHz
  44. Frame rate                               : 31.250 FPS (1536 SPF)
  45. Compression mode                         : Lossy
  46. Stream size                              : 310 MiB (5%)
  47. Language                                 : English
  48. Service kind                             : Complete Main
  49. Default                                  : Yes
  50. Forced                                   : No
  51. Text
  52. ID                                       : 3
  53. Format                                   : UTF-8
  54. Codec ID                                 : S_TEXT/UTF8
  55. Codec ID/Info                            : UTF-8 Plain Text
  56. Duration                                 : 54 min 46 s
  57. Bit rate                                 : 3 b/s
  58. Count of elements                        : 36
  59. Stream size                              : 1.47 KiB (0%)
  60. Language                                 : English
  61. Default                                  : No
  62. Forced                                   : No
复制代码






                                       
                                       

                                       
                                       
                                       




回复

使用道具 举报

懒得打字嘛,点击右侧快捷回复 【右侧内容,后台自定义】
您需要登录后才可以回帖 登录 | 立即加入

本版积分规则

Archiver|小黑屋| 蓝光电影网 |网站地图

Copyright © 2021 Comsenz Inc. Powered by 蓝光电影网

蓝光电影网

本站内容由用户自主分享和转载自互联网,转载目的在于传递更多信息,并不代表本网赞同其观点和对其真实性负责。

如有侵权、违反国家法律政策行为,请联系我们,我们会第一时间及时清除和处理!

举报反馈邮箱:[email protected]

快速回复 返回顶部 返回列表