找回密码

蓝光电影网

查看: 15|回复: 0

[动作] 愤怒的律师 The.Advocate.A.Missing.Body.2015.KOREAN.1080p.NF.WEBRip.DD5.1.x264-ARiN 3.29GB

[复制链接]
蓝光币
515
发表于 2019-5-30 20:23:09 | 显示全部楼层 |阅读模式


◎译  名 愤慨的律师 / The Advocate: A Missing Body / 暴走律师
◎片  名 ?? ???
◎年  代 2015
◎产  地 韩国
◎类  别 行动 / 犯罪
◎语  言 韩语
◎上映日期 2015-10-08(韩国)
◎IMDb评分  6.7/10 from 336 users
◎IMDb链接  http://www.imdb.com/title/tt4975498
◎豆瓣评分 6.6/10 from 2247 users
◎豆瓣链接 https://movie.douban.com/subject/25980207/
◎片  长 117分钟
◎导  演 许宗昊 Jong-ho Huh
◎编  剧 许宗昊
◎主  演 李善均 Seon-gyun Lee
      金高恩 Go-Eun Kim
      张铉诚 Hyeong-seong Jang
      林元熙 Won-hie Lim

◎标  签 韩国 | 犯罪 | 悬疑 | 法令 | 2015 | 剧情 | 笑剧 | 行动
◎简  介  
  报告的是一宗古怪的杀人命案,只要怀疑犯却找不到证据和尸身,律师和检察官协力揭开事务背后诡计的故事。而李善均饰演的律师一向以来攻无不克,他相信在法庭上赢了就是正义。而金高恩饰演的检察官则具有司法职员的激烈信心。两小我在大巨细小的工作上都有对峙的定见,却终极还是协力处理案件。
  1. Video
  2. ID                                       : 1
  3. Format                                   : AVC
  4. Format/Info                              : Advanced Video Codec
  5. Format profile                           : [email protected]
  6. Format settings                          : CABAC / 3 Ref Frames
  7. Format settings, CABAC                   : Yes
  8. Format settings, ReFrames                : 3 frames
  9. Codec ID                                 : V_MPEG4/ISO/AVC
  10. Duration                                 : 1 h 56 min
  11. Bit rate mode                            : Variable
  12. Bit rate                                 : 3 650 kb/s
  13. Maximum bit rate                         : 5 475 kb/s
  14. Width                                    : 1 920 pixels
  15. Height                                   : 1 080 pixels
  16. Display aspect ratio                     : 16:9
  17. Frame rate mode                          : Constant
  18. Frame rate                               : 23.976 (24000/1001) FPS
  19. Color space                              : YUV
  20. Chroma subsampling                       : 4:2:0
  21. Bit depth                                : 8 bits
  22. Scan type                                : Progressive
  23. Bits/(Pixel*Frame)                       : 0.073
  24. Stream size                              : 2.97 GiB (90%)
  25. Writing library                          : x264 core 148 r2714 2daf636
  26. Encoding settings                        : cabac=1 / ref=3 / deblock=1:0:0 / analyse=0x1:0x111 / me=umh / subme=10 / psy=1 / psy_rd=1.00:0.00 / mixed_ref=1 / me_range=24 / chroma_me=1 / trellis=2 / 8x8dct=0 / cqm=0 / deadzone=21,11 / fast_pskip=1 / chroma_qp_offset=-2 / threads=8 / lookahead_threads=1 / sliced_threads=0 / nr=0 / decimate=1 / interlaced=0 / bluray_compat=0 / stitchable=1 / constrained_intra=0 / bframes=2 / b_pyramid=0 / b_adapt=2 / b_bias=0 / direct=3 / weightb=1 / open_gop=0 / weightp=2 / keyint=48 / keyint_min=25 / scenecut=0 / intra_refresh=0 / rc_lookahead=48 / rc=2pass / mbtree=1 / bitrate=3650 / ratetol=1.0 / qcomp=0.50 / qpmin=6 / qpmax=51 / qpstep=4 / cplxblur=20.0 / qblur=0.5 / vbv_maxrate=5475 / vbv_bufsize=7300 / nal_hrd=vbr / filler=0 / ip_ratio=1.40 / aq=1:1.00
  27. Default                                  : Yes
  28. Forced                                   : No
  29. Audio
  30. ID                                       : 2
  31. Format                                   : AC-3
  32. Format/Info                              : Audio Coding 3
  33. Commercial name                          : Dolby Digital
  34. Codec ID                                 : A_AC3
  35. Duration                                 : 1 h 56 min
  36. Bit rate mode                            : Constant
  37. Bit rate                                 : 384 kb/s
  38. Channel(s)                               : 6 channels
  39. Channel layout                           : L R C LFE Ls Rs
  40. Sampling rate                            : 48.0 kHz
  41. Frame rate                               : 31.250 FPS (1536 SPF)
  42. Bit depth                                : 16 bits
  43. Compression mode                         : Lossy
  44. Stream size                              : 321 MiB (10%)
  45. Service kind                             : Complete Main
  46. Default                                  : Yes
  47. Forced                                   : No
  48. Text #1
  49. ID                                       : 3
  50. Format                                   : UTF-8
  51. Codec ID                                 : S_TEXT/UTF8
  52. Codec ID/Info                            : UTF-8 Plain Text
  53. Duration                                 : 1 h 52 min
  54. Bit rate                                 : 44 b/s
  55. Count of elements                        : 1325
  56. Stream size                              : 36.9 KiB (0%)
  57. Language                                 : English
  58. Default                                  : Yes
  59. Forced                                   : Yes
  60. Text #2
  61. ID                                       : 4
  62. Format                                   : UTF-8
  63. Codec ID                                 : S_TEXT/UTF8
  64. Codec ID/Info                            : UTF-8 Plain Text
  65. Duration                                 : 1 h 53 min
  66. Bit rate                                 : 86 b/s
  67. Count of elements                        : 2226
  68. Stream size                              : 72.6 KiB (0%)
  69. Title                                    : SDH
  70. Language                                 : Korean
  71. Default                                  : No
  72. Forced                                   : No
复制代码






                                       
                                       

                                       
                                       
                                       




回复

使用道具 举报

懒得打字嘛,点击右侧快捷回复 【右侧内容,后台自定义】
您需要登录后才可以回帖 登录 | 立即加入

本版积分规则

Archiver|小黑屋| 蓝光电影网 |网站地图

Copyright © 2021 Comsenz Inc. Powered by 蓝光电影网

蓝光电影网

本站内容由用户自主分享和转载自互联网,转载目的在于传递更多信息,并不代表本网赞同其观点和对其真实性负责。

如有侵权、违反国家法律政策行为,请联系我们,我们会第一时间及时清除和处理!

举报反馈邮箱:[email protected]

快速回复 返回顶部 返回列表