找回密码

蓝光电影网

查看: 25|回复: 0

[爱情] 伤心画廊 The.Broken.Hearts.Gallery.2020.1080p.WEBRip.DD5.1.x264-CM 5.83GB

[复制链接]
蓝光币
515
发表于 2020-10-20 19:04:28 | 显示全部楼层 |阅读模式


◎译  名 悲伤画廊
◎片  名 The Broken Heart Gallery
◎年  代 2020
◎产  地 美国,加拿大
◎类  别 恋爱
◎语  言 英语
◎上映日期 2020-09-11(美国)
◎IMDb评分  6.5/10 from 921 users
◎IMDb链接  https://www.imdb.com/title/tt2140571/
◎豆瓣评分 /10 from 0 users
◎豆瓣链接 https://movie.douban.com/subject/24325859/
◎片  长 108分钟
◎导  演 纳塔利·克林斯基 Natalie Krinsky
◎编  剧 纳塔利·克林斯基 Natalie Krinsky
◎主  演 莫莉·戈登 Molly Gordon
       戴克·蒙哥马利 Dacre Montgomery
       菲莉帕·苏 Phillipa Soo
       苏琪·沃特豪斯 Suki Waterhouse
       伯纳黛特·彼得斯 Bernadette Peters
       杰拉尔丁·维斯瓦纳坦 Geraldine Viswanathan
       乌特卡什·安邦德卡尔 Utkarsh Ambudkar
       梅根·弗格森 Megan Ferguson
       阿图罗·卡斯特罗 Arturo Castro
       泰勒·希尔 Taylor Hill
       尼古拉斯·卡雷拉 Nicholas Carella
       斯蒂芬妮·吴 Stephanie Ng Wan
       Chris Sandiford
◎标  签 恋爱 | 美国 | 2020s | 美國 | 13reasonswhy | whatever | NatalieKrinsky | Cinema_2020
◎简  介


  故事报告露西天生就是一位收藏家,她与男友分手,而男友是惠特尼博物馆的老板。露西不晓得该把恋爱时的物品放在那里,因而她在一家陌生酒店的大厅中策划了心碎画廊,在那边她找到了自己的声音,并学会了罢休去爱。
  1. Video
  2. ID                                       : 1
  3. Format                                   : AVC
  4. Format/Info                              : Advanced Video Codec
  5. Format profile                           : [email protected]
  6. Format settings                          : CABAC / 2 Ref Frames
  7. Format settings, CABAC                   : Yes
  8. Format settings, Reference frames        : 2 frames
  9. Codec ID                                 : V_MPEG4/ISO/AVC
  10. Duration                                 : 1 h 48 min
  11. Bit rate                                 : 7 287 kb/s
  12. Width                                    : 1 920 pixels
  13. Height                                   : 1 080 pixels
  14. Display aspect ratio                     : 16:9
  15. Frame rate mode                          : Constant
  16. Frame rate                               : 23.976 (24000/1001/189150) FPS
  17. Color space                              : YUV
  18. Chroma subsampling                       : 4:2:0
  19. Bit depth                                : 8 bits
  20. Scan type                                : Progressive
  21. Bits/(Pixel*Frame)                       : 0.147
  22. Stream size                              : 5.54 GiB (95%)
  23. Writing library                          : x264 core 155 r2901 7d0ff22
  24. Language                                 : English
  25. Default                                  : Yes
  26. Forced                                   : No
  27. Color range                              : Limited
  28. Color primaries                          : BT.709
  29. Transfer characteristics                 : BT.709
  30. Matrix coefficients                      : BT.709
  31. Audio
  32. ID                                       : 2
  33. Format                                   : AC-3
  34. Format/Info                              : Audio Coding 3
  35. Commercial name                          : Dolby Digital
  36. Codec ID                                 : A_AC3
  37. Duration                                 : 1 h 48 min
  38. Bit rate mode                            : Constant
  39. Bit rate                                 : 384 kb/s
  40. Channel(s)                               : 6 channels
  41. Channel layout                           : L R C LFE Ls Rs
  42. Sampling rate                            : 48.0 kHz
  43. Frame rate                               : 31.250 FPS (1536 SPF)
  44. Compression mode                         : Lossy
  45. Stream size                              : 299 MiB (5%)
  46. Language                                 : English
  47. Service kind                             : Complete Main
  48. Default                                  : Yes
  49. Forced                                   : No
  50. Text
  51. ID                                       : 3
  52. Format                                   : UTF-8
  53. Codec ID                                 : S_TEXT/UTF8
  54. Codec ID/Info                            : UTF-8 Plain Text
  55. Duration                                 : 1 h 44 min
  56. Bit rate                                 : 83 b/s
  57. Count of elements                        : 1641
  58. Stream size                              : 64.0 KiB (0%)
  59. Language                                 : English
  60. Default                                  : Yes
  61. Forced                                   : No
复制代码





                                       
                                       

                                       
                                       
                                       




回复

使用道具 举报

懒得打字嘛,点击右侧快捷回复 【右侧内容,后台自定义】
您需要登录后才可以回帖 登录 | 立即加入

本版积分规则

Archiver|小黑屋| 蓝光电影网 |网站地图

Copyright © 2021 Comsenz Inc. Powered by 蓝光电影网

蓝光电影网

本站内容由用户自主分享和转载自互联网,转载目的在于传递更多信息,并不代表本网赞同其观点和对其真实性负责。

如有侵权、违反国家法律政策行为,请联系我们,我们会第一时间及时清除和处理!

举报反馈邮箱:[email protected]

快速回复 返回顶部 返回列表