找回密码

蓝光电影网

查看: 28|回复: 0

[爱情] 股票期权 Stock.Option.2015.1080p.AMZN.WEBRip.AAC2.0.x264-DRAVSTER 4.39GB

[复制链接]
蓝光币
515
发表于 2020-10-19 09:50:52 | 显示全部楼层 |阅读模式


◎译  名 股票期权
◎片  名 Stock Option
◎年  代 2016
◎产  地 美国
◎类  别 恋爱
◎语  言 英语
◎上映日期 
◎IMDb评分  6.3/10 from 106 users
◎IMDb链接  https://www.imdb.com/title/tt4893328/
◎豆瓣评分 /10 from 0 users
◎豆瓣链接 https://movie.douban.com/subject/26714887/
◎片  长 80分钟
◎主  演 阿明·约瑟夫 Amin Joseph
       安东尼可·史姑娘 Antonique Smith
       塔莎·史姑娘 Tasha Smith
       弗兰科·卡斯坦 Franco Castan
       J·J·格林 J.J. Green
◎标  签 股友朋友请加
◎简  介


  A down-on-his-luck stock broker becomes homeless and takes refuge in front of an office building where a famous print model works. After he heroically rescues her from a robbery attempt one night, she takes him home as an act of gratitude. Upon cleaning him up, sparks fly and she questions her current relationship in this romantic comedy.
  1. Video
  2. ID                                       : 1
  3. Format                                   : AVC
  4. Format/Info                              : Advanced Video Codec
  5. Format profile                           : [email protected]
  6. Format settings                          : CABAC / 4 Ref Frames
  7. Format settings, CABAC                   : Yes
  8. Format settings, Reference frames        : 4 frames
  9. Codec ID                                 : V_MPEG4/ISO/AVC
  10. Duration                                 : 1 h 19 min
  11. Bit rate                                 : 7 678 kb/s
  12. Width                                    : 1 920 pixels
  13. Height                                   : 1 080 pixels
  14. Display aspect ratio                     : 16:9
  15. Frame rate mode                          : Constant
  16. Frame rate                               : 24.000 FPS
  17. Color space                              : YUV
  18. Chroma subsampling                       : 4:2:0
  19. Bit depth                                : 8 bits
  20. Scan type                                : Progressive
  21. Bits/(Pixel*Frame)                       : 0.154
  22. Stream size                              : 4.29 GiB (98%)
  23. Language                                 : English
  24. Default                                  : Yes
  25. Forced                                   : No
  26. Color range                              : Limited
  27. Color primaries                          : BT.709
  28. Transfer characteristics                 : BT.709
  29. Matrix coefficients                      : BT.709
  30. Audio
  31. ID                                       : 2
  32. Format                                   : AAC LC
  33. Format/Info                              : Advanced Audio Codec Low Complexity
  34. Codec ID                                 : A_AAC-2
  35. Duration                                 : 1 h 19 min
  36. Bit rate                                 : 192 kb/s
  37. Channel(s)                               : 2 channels
  38. Channel layout                           : L R
  39. Sampling rate                            : 48.0 kHz
  40. Frame rate                               : 46.875 FPS (1024 SPF)
  41. Compression mode                         : Lossy
  42. Stream size                              : 110 MiB (2%)
  43. Language                                 : English
  44. Default                                  : Yes
  45. Forced                                   : No
  46. Text
  47. ID                                       : 3
  48. Format                                   : UTF-8
  49. Codec ID                                 : S_TEXT/UTF8
  50. Codec ID/Info                            : UTF-8 Plain Text
  51. Duration                                 : 1 h 18 min
  52. Bit rate                                 : 92 b/s
  53. Count of elements                        : 1849
  54. Stream size                              : 53.6 KiB (0%)
  55. Language                                 : English
  56. Default                                  : Yes
  57. Forced                                   : No
复制代码






                                       
                                       

                                       
                                       
                                       




回复

使用道具 举报

懒得打字嘛,点击右侧快捷回复 【右侧内容,后台自定义】
您需要登录后才可以回帖 登录 | 立即加入

本版积分规则

Archiver|小黑屋| 蓝光电影网 |网站地图

Copyright © 2021 Comsenz Inc. Powered by 蓝光电影网

蓝光电影网

本站内容由用户自主分享和转载自互联网,转载目的在于传递更多信息,并不代表本网赞同其观点和对其真实性负责。

如有侵权、违反国家法律政策行为,请联系我们,我们会第一时间及时清除和处理!

举报反馈邮箱:[email protected]

快速回复 返回顶部 返回列表