找回密码

蓝光电影网

查看: 27|回复: 0

[剧情] 阶级关系 Class.Relations.1984.GERMAN.1080p.AMZN.WEBRip.DDP2.0.x264-Cinefeel 8.85GB

[复制链接]
蓝光币
515
发表于 2021-8-20 01:20:39 | 显示全部楼层 |阅读模式


◎译  名 阶级关系/Class Relations
◎片  名 Klassenverh?ltnisse
◎年  代 1984
◎产  地 西德,法国
◎类  别 剧情
◎语  言 德语
◎上映日期 1984-10-03
◎IMDb评分  7/10 from 589 users
◎IMDb链接  https://www.imdb.com/title/tt0087566/
◎豆瓣评分 7.6/10 from 311 users
◎豆瓣链接 https://movie.douban.com/subject/1419900/
◎片  长 Germany: 127 分钟
◎导  演 达尼埃尔·于伊耶 Danièle Huillet / 让-马里·斯特劳布 Jean-Marie Straub
◎编  剧 达尼埃尔·于伊耶 Danièle Huillet / 让-马里·斯特劳布 Jean-Marie Straub / 弗兰茨·卡夫卡 Franz Kafka
◎主  演 马里奥·阿多夫 Mario Adorf
       劳拉·贝蒂 Laura Betti
       哈伦·法罗基 Harun Farocki
       利布加特·施瓦茨 Libgart Schwarz
       阿尔弗雷德·埃德尔 Alfred Edel
       Andi Engel
       Georg Brintrup
       Manfred Blank
       汤姆·安德森 Thom Andersen
◎标  签 德国 | 卡夫卡 | Jean-Marie_Straub | 德国电影 | 1980s | 法国 | 1984 | 让-马里·斯特劳布
◎简  介


  改编自卡夫卡未完成的长篇小说《美国》,但其关注的并非实在的美国,更像是没有具体年月的关于美国的寓言。卡尔?罗斯曼由于丑闻而接管其舅舅的约请搬去美国,但是他没法摆脱欧洲大陆新式习惯,更糟的是,欧洲的阶级结构没法让他经过自己的双手谋生。这一电影版关注本钱主义社会缔造的残暴而幻化莫测的阶级关系。同时忠于原著而未增加影片的终局。施特劳布佳耦气概的一向操纵与卡夫卡空气的完善连系:中景牢固机位,面无脸色的演员,人物肢体和说话决心僵硬,夸大侧面特写,镜头推动及平移决心高耸。由此我们可以追求到改编卡夫卡作品的带尝试性的能够。
◎获奖情况
  第34届柏林国际电影节 ?(1984)
  金熊奖最好影片(提名) 达尼埃尔·于伊耶?/?让-马里·斯特劳布
  出格说起 达尼埃尔·于伊耶?/?让-马里·斯特劳布
  1. Video
  2. ID                                       : 1
  3. Format                                   : AVC
  4. Format/Info                              : Advanced Video Codec
  5. Format profile                           : [email protected]
  6. Format settings                          : CABAC / 4 Ref Frames
  7. Format settings, CABAC                   : Yes
  8. Format settings, Reference frames        : 4 frames
  9. Codec ID                                 : V_MPEG4/ISO/AVC
  10. Duration                                 : 2 h 7 min
  11. Bit rate mode                            : Constant
  12. Bit rate                                 : 10 000 kb/s
  13. Width                                    : 1 440 pixels
  14. Height                                   : 1 080 pixels
  15. Display aspect ratio                     : 4:3
  16. Frame rate mode                          : Constant
  17. Frame rate                               : 24.000 FPS
  18. Color space                              : YUV
  19. Chroma subsampling                       : 4:2:0
  20. Bit depth                                : 8 bits
  21. Scan type                                : Progressive
  22. Bits/(Pixel*Frame)                       : 0.268
  23. Stream size                              : 8.65 GiB (98%)
  24. Default                                  : Yes
  25. Forced                                   : No
  26. Color range                              : Limited
  27. Color primaries                          : BT.709
  28. Transfer characteristics                 : BT.709
  29. Matrix coefficients                      : BT.709
  30. Audio
  31. ID                                       : 6
  32. Format                                   : E-AC-3
  33. Format/Info                              : Enhanced AC-3
  34. Commercial name                          : Dolby Digital Plus
  35. Codec ID                                 : A_EAC3
  36. Duration                                 : 2 h 7 min
  37. Bit rate mode                            : Constant
  38. Bit rate                                 : 224 kb/s
  39. Channel(s)                               : 2 channels
  40. Channel layout                           : L R
  41. Sampling rate                            : 48.0 kHz
  42. Frame rate                               : 31.250 FPS (1536 SPF)
  43. Compression mode                         : Lossy
  44. Stream size                              : 204 MiB (2%)
  45. Language                                 : German
  46. Service kind                             : Complete Main
  47. Default                                  : Yes
  48. Forced                                   : No
  49. Text #1
  50. ID                                       : 2
  51. Format                                   : UTF-8
  52. Codec ID                                 : S_TEXT/UTF8
  53. Codec ID/Info                            : UTF-8 Plain Text
  54. Duration                                 : 2 h 6 min
  55. Bit rate                                 : 53 b/s
  56. Count of elements                        : 1325
  57. Stream size                              : 49.5 KiB (0%)
  58. Language                                 : English
  59. Default                                  : No
  60. Forced                                   : No
  61. Text #2
  62. ID                                       : 3
  63. Format                                   : UTF-8
  64. Codec ID                                 : S_TEXT/UTF8
  65. Codec ID/Info                            : UTF-8 Plain Text
  66. Duration                                 : 2 h 6 min
  67. Bit rate                                 : 56 b/s
  68. Count of elements                        : 1319
  69. Stream size                              : 52.0 KiB (0%)
  70. Language                                 : Spanish
  71. Default                                  : No
  72. Forced                                   : No
  73. Text #3
  74. ID                                       : 4
  75. Format                                   : UTF-8
  76. Codec ID                                 : S_TEXT/UTF8
  77. Codec ID/Info                            : UTF-8 Plain Text
  78. Duration                                 : 2 h 6 min
  79. Bit rate                                 : 69 b/s
  80. Count of elements                        : 1591
  81. Stream size                              : 64.5 KiB (0%)
  82. Language                                 : French
  83. Default                                  : No
  84. Forced                                   : No
  85. Text #4
  86. ID                                       : 5
  87. Format                                   : UTF-8
  88. Codec ID                                 : S_TEXT/UTF8
  89. Codec ID/Info                            : UTF-8 Plain Text
  90. Duration                                 : 2 h 6 min
  91. Bit rate                                 : 55 b/s
  92. Count of elements                        : 1323
  93. Stream size                              : 51.7 KiB (0%)
  94. Language                                 : Italian
  95. Default                                  : No
  96. Forced                                   : No
复制代码






                                       
                                       

                                       
                                       
                                       




回复

使用道具 举报

懒得打字嘛,点击右侧快捷回复 【右侧内容,后台自定义】
您需要登录后才可以回帖 登录 | 立即加入

本版积分规则

Archiver|小黑屋| 蓝光电影网 |网站地图

Copyright © 2021 Comsenz Inc. Powered by 蓝光电影网

蓝光电影网

本站内容由用户自主分享和转载自互联网,转载目的在于传递更多信息,并不代表本网赞同其观点和对其真实性负责。

如有侵权、违反国家法律政策行为,请联系我们,我们会第一时间及时清除和处理!

举报反馈邮箱:[email protected]

快速回复 返回顶部 返回列表