找回密码

蓝光电影网

查看: 12|回复: 0

[爱情] 受孕 Conception.2011.1080p.AMZN.WEBRip.DDP2.0.x264-alfaHD 3.80GB

[复制链接]
蓝光币
509
发表于 2020-8-6 18:18:14 | 显示全部楼层 |阅读模式


◎译  名 受孕
◎片  名 Conception
◎年  代 2011
◎产  地 美国
◎类  别 恋爱
◎语  言 英语
◎上映日期 2011
◎IMDb评分  5.3/10 from 1216 users
◎IMDb链接  https://www.imdb.com/title/tt1619277
◎豆瓣评分 0/10 from 0 users
◎豆瓣链接 https://movie.douban.com/subject/5154718/
◎导  演 Josh Stolberg
◎编  剧 Josh Stolberg
◎主  演 萨拉·海蓝德 Sarah Hyland
       朱丽·鲍温 Julie Bowen
       艾伦·图代克 Alan Tudyk
       康妮·布里登 Connie Britton
       詹妮佛·芬尼甘 Jennifer Finnigan
       乔纳森·斯沃曼 Jonathan Silverman

◎标  签 美国电影 | 电影 | Finnigan | 阿美莉嘉·奥利沃 | 詹妮佛·芬尼甘 | 萨拉·海蓝德 | 美国 | 求资本未上映啊啊啊啊啊
◎简  介

  
  暂无相关剧情先容
  1. Video
  2. ID                                       : 1
  3. Format                                   : AVC
  4. Format/Info                              : Advanced Video Codec
  5. Format profile                           : [email protected]
  6. Format settings                          : CABAC / 4 Ref Frames
  7. Format settings, CABAC                   : Yes
  8. Format settings, Reference frames        : 4 frames
  9. Codec ID                                 : V_MPEG4/ISO/AVC
  10. Duration                                 : 1 h 27 min
  11. Bit rate mode                            : Constant
  12. Bit rate                                 : 6 013 kb/s
  13. Nominal bit rate                         : 10 000 kb/s
  14. Width                                    : 1 920 pixels
  15. Height                                   : 1 080 pixels
  16. Display aspect ratio                     : 16:9
  17. Frame rate mode                          : Constant
  18. Frame rate                               : 23.976 (24000/1001/189150) FPS
  19. Color space                              : YUV
  20. Chroma subsampling                       : 4:2:0
  21. Bit depth                                : 8 bits
  22. Scan type                                : Progressive
  23. Bits/(Pixel*Frame)                       : 0.121
  24. Stream size                              : 3.66 GiB (96%)
  25. Default                                  : Yes
  26. Forced                                   : No
  27. Color range                              : Limited
  28. Color primaries                          : BT.709
  29. Transfer characteristics                 : BT.709
  30. Matrix coefficients                      : BT.709
  31. Audio
  32. ID                                       : 2
  33. Format                                   : E-AC-3
  34. Format/Info                              : Enhanced AC-3
  35. Commercial name                          : Dolby Digital Plus
  36. Codec ID                                 : A_EAC3
  37. Duration                                 : 1 h 27 min
  38. Bit rate mode                            : Constant
  39. Bit rate                                 : 224 kb/s
  40. Channel(s)                               : 2 channels
  41. Channel layout                           : L R
  42. Sampling rate                            : 48.0 kHz
  43. Frame rate                               : 31.250 FPS (1536 SPF)
  44. Compression mode                         : Lossy
  45. Stream size                              : 140 MiB (4%)
  46. Language                                 : English
  47. Service kind                             : Complete Main
  48. Default                                  : Yes
  49. Forced                                   : No
  50. Text #1
  51. ID                                       : 3
  52. Format                                   : UTF-8
  53. Codec ID                                 : S_TEXT/UTF8
  54. Codec ID/Info                            : UTF-8 Plain Text
  55. Duration                                 : 1 h 25 min
  56. Bit rate                                 : 78 b/s
  57. Count of elements                        : 2568
  58. Stream size                              : 49.6 KiB (0%)
  59. Language                                 : English
  60. Default                                  : No
  61. Forced                                   : No
  62. Text #2
  63. ID                                       : 4
  64. Format                                   : UTF-8
  65. Codec ID                                 : S_TEXT/UTF8
  66. Codec ID/Info                            : UTF-8 Plain Text
  67. Duration                                 : 1 h 26 min
  68. Bit rate                                 : 80 b/s
  69. Count of elements                        : 2719
  70. Stream size                              : 51.5 KiB (0%)
  71. Title                                    : SDH
  72. Language                                 : English
  73. Default                                  : No
  74. Forced                                   : No
  75. Menu
  76. 00:00:00.000                             : en:Studio Logos
  77. 00:00:16.000                             : en:The Kids Put Paul in an Awkward Situation, Opening Credits
  78. 00:05:05.000                             : en:The Kids Are Interviewed about Their Perception on a Baby\'s Birth
  79. 00:06:10.000                             : en:Laurie and Brad Argue and Tiffany Tries to Entice Will
  80. 00:09:57.000                             : en:Bree and Joel Meet for a Blind Date and Get Along
  81. 00:12:02.000                             : en:Nikki and Tay Have a Small Talk
  82. 00:14:45.000                             : en:Mark and Gwen Babysit and Mark Tries to Make Love
  83. 00:16:45.000                             : en:Tracey Doesn\'t Let J.T. Order Meat
  84. 00:18:24.000                             : en:Eric\'s Actions Infuriates Carla
  85. 00:20:45.000                             : en:Will and Tiffany Talk about Sex Tapes
  86. 00:22:02.000                             : en:Gloria Persuades Brian to Make Love to Her
  87. 00:22:56.000                             : en:Tommy and Gina Get Intimate while Gwen Questions Mark
  88. 00:25:45.000                             : en:Nikki and Tay Talk about Their Decision of Having a Baby
  89. 00:27:37.000                             : en:Mark Tries to Convince Gwen to Make Love
  90. 00:29:12.000                             : en:Gloria Decides to Try Different Ways to Conceive
  91. 00:32:07.000                             : en:Brad Asks Laurie to Make Love
  92. 00:34:18.000                             : en:Tracey Bribes J.T. in Order to Make Him Quit Meat
  93. 00:36:00.000                             : en:Laurie and Brad Discuss Their Dull Sex Life
  94. 00:39:30.000                             : en:Eric Tries to Calm Down Carla
  95. 00:42:23.000                             : en:Gwen Makes a Confession to Mark
  96. 00:46:08.000                             : en:J.T. Asks for Tracey\'s Permission to Have Fish
  97. 00:47:33.000                             : en:Tay Pampers Nikki
  98. 00:50:01.000                             : en:Tracey and J.T. Try to Make Love
  99. 00:52:52.000                             : en:Bree and Joel Enjoy Their Date, Joel\'s Apartment
  100. 00:54:21.000                             : en:Will and Tiffany Try to Make Their Movie
  101. 00:55:34.000                             : en:Nikki Tells Tay about Her Wedding Day
  102. 00:57:49.000                             : en:Gina and Tommy Make Passionate Love
  103. 00:59:02.000                             : en:Gloria and Brian Try Hard for a Baby
  104. 01:01:12.000                             : en:Eric Proposes Carla
  105. 01:03:08.000                             : en:Tommy Confesses His Feelings to Gina
  106. 01:04:17.000                             : en:Will Runs into a Problem while Making the Video
  107. 01:07:55.000                             : en:Laurie Gets Freshened Up
  108. 01:10:46.000                             : en:Bree and Joel Get into a Weird Situation
  109. 01:13:53.000                             : en:Mark Tries to Comfort Gwen
  110. 01:16:53.000                             : en:Tracey Shares Her Emotions with J.T.
  111. 01:19:16.000                             : en:Nikki and Tay Decide on Their Baby\'s Name
  112. 01:20:34.000                             : en:The Couples Share Their Perceptions about Pregnancy
  113. 01:22:26.000                             : en:Paul Dismisses the Class and the Kids Get Interviewed
  114. 01:24:21.000                             : en:End Credits
复制代码






                                       
                                       

                                       
                                       
                                       




回复

使用道具 举报

懒得打字嘛,点击右侧快捷回复 【右侧内容,后台自定义】
您需要登录后才可以回帖 登录 | 立即加入

本版积分规则

Archiver|小黑屋| 蓝光电影网 |网站地图

Copyright © 2021 Comsenz Inc. Powered by 蓝光电影网

蓝光电影网

本站内容由用户自主分享和转载自互联网,转载目的在于传递更多信息,并不代表本网赞同其观点和对其真实性负责。

如有侵权、违反国家法律政策行为,请联系我们,我们会第一时间及时清除和处理!

举报反馈邮箱:[email protected]

快速回复 返回顶部 返回列表