找回密码

蓝光电影网

查看: 18|回复: 0

[爱情] 朋友但已婚 FriendButMarried.2018.INDONESIAN.1080p.NF.WEBRip.DDP5.1.x264-TEPES 3.19GB

[复制链接]
蓝光币
515
发表于 2020-7-27 00:17:21 | 显示全部楼层 |阅读模式


◎译  名 朋友,但已婚 / Teman Tapi Menikah
◎片  名 #TemanTapiMenikah
◎年  代 2018
◎产  地 印度尼西亚
◎类  别 恋爱 / 列传
◎语  言 印尼语
◎IMDb评分  7.0/10 from 450 users
◎IMDb链接  https://www.imdb.com/title/tt8076266
◎豆瓣评分 0/10 from 0 users
◎豆瓣链接 https://movie.douban.com/subject/34847482/
◎片  长 102分钟
◎导  演 Rako Prijanto
◎主  演 阿迪帕蒂·多尔肯 Adipati Dolken
       Vanesha Prescilla
       Refal Hady
       Denira Wiraguna

◎简  介

  
  Ayu and Ditto have been bestfriends for 12 years. And for all those time, Ditto has been secretly in love with her. Until one day, Ayu told him that she's gonna get married.
  1. Video
  2. ID                                       : 1
  3. Format                                   : AVC
  4. Format/Info                              : Advanced Video Codec
  5. Format profile                           : [email protected]
  6. Format settings                          : CABAC / 3 Ref Frames
  7. Format settings, CABAC                   : Yes
  8. Format settings, Reference frames        : 3 frames
  9. Codec ID                                 : V_MPEG4/ISO/AVC
  10. Duration                                 : 1 h 42 min
  11. Bit rate mode                            : Variable
  12. Bit rate                                 : 3 830 kb/s
  13. Maximum bit rate                         : 5 745 kb/s
  14. Width                                    : 1 920 pixels
  15. Height                                   : 1 080 pixels
  16. Display aspect ratio                     : 16:9
  17. Frame rate mode                          : Constant
  18. Frame rate                               : 24.000 FPS
  19. Color space                              : YUV
  20. Chroma subsampling                       : 4:2:0
  21. Bit depth                                : 8 bits
  22. Scan type                                : Progressive
  23. Bits/(Pixel*Frame)                       : 0.077
  24. Stream size                              : 2.73 GiB (86%)
  25. Writing library                          : x264 core 148 r2717 0d2410d
  26. Encoding settings                        : cabac=1 / ref=3 / deblock=1:0:0 / analyse=0x1:0x111 / me=umh / subme=10 / psy=1 / psy_rd=1.00:0.00 / mixed_ref=1 / me_range=24 / chroma_me=1 / trellis=2 / 8x8dct=0 / cqm=0 / deadzone=21,11 / fast_pskip=1 / chroma_qp_offset=-2 / threads=8 / lookahead_threads=1 / sliced_threads=0 / nr=0 / decimate=1 / interlaced=0 / bluray_compat=0 / stitchable=1 / constrained_intra=0 / bframes=2 / b_pyramid=0 / b_adapt=2 / b_bias=0 / direct=3 / weightb=1 / open_gop=0 / weightp=2 / keyint=250 / keyint_min=24 / scenecut=0 / intra_refresh=0 / rc_lookahead=48 / rc=2pass / mbtree=1 / bitrate=3830 / ratetol=1.0 / qcomp=0.50 / qpmin=6 / qpmax=51 / qpstep=4 / cplxblur=20.0 / qblur=0.5 / vbv_maxrate=5745 / vbv_bufsize=7660 / nal_hrd=vbr / filler=0 / ip_ratio=1.40 / aq=1:1.00
  27. Default                                  : Yes
  28. Forced                                   : No
  29. Audio
  30. ID                                       : 2
  31. Format                                   : E-AC-3
  32. Format/Info                              : Enhanced AC-3
  33. Commercial name                          : Dolby Digital Plus
  34. Codec ID                                 : A_EAC3
  35. Duration                                 : 1 h 42 min
  36. Bit rate mode                            : Constant
  37. Bit rate                                 : 640 kb/s
  38. Channel(s)                               : 6 channels
  39. Channel layout                           : L R C LFE Ls Rs
  40. Sampling rate                            : 48.0 kHz
  41. Frame rate                               : 31.250 FPS (1536 SPF)
  42. Compression mode                         : Lossy
  43. Stream size                              : 467 MiB (14%)
  44. Language                                 : Indonesian
  45. Service kind                             : Complete Main
  46. Default                                  : Yes
  47. Forced                                   : No
  48. Text #1
  49. ID                                       : 3
  50. Format                                   : UTF-8
  51. Codec ID                                 : S_TEXT/UTF8
  52. Codec ID/Info                            : UTF-8 Plain Text
  53. Duration                                 : 1 h 42 min
  54. Bit rate                                 : 0 b/s
  55. Count of elements                        : 19
  56. Stream size                              : 547 Bytes (0%)
  57. Title                                    : Forced
  58. Language                                 : Indonesian
  59. Default                                  : Yes
  60. Forced                                   : Yes
  61. Text #2
  62. ID                                       : 4
  63. Format                                   : UTF-8
  64. Codec ID                                 : S_TEXT/UTF8
  65. Codec ID/Info                            : UTF-8 Plain Text
  66. Duration                                 : 1 h 39 min
  67. Bit rate                                 : 63 b/s
  68. Count of elements                        : 1370
  69. Stream size                              : 46.3 KiB (0%)
  70. Title                                    : SDH
  71. Language                                 : English
  72. Default                                  : No
  73. Forced                                   : No
  74. Text #3
  75. ID                                       : 5
  76. Format                                   : UTF-8
  77. Codec ID                                 : S_TEXT/UTF8
  78. Codec ID/Info                            : UTF-8 Plain Text
  79. Duration                                 : 1 h 42 min
  80. Bit rate                                 : 61 b/s
  81. Count of elements                        : 1410
  82. Stream size                              : 45.9 KiB (0%)
  83. Title                                    : SDH
  84. Language                                 : Indonesian
  85. Default                                  : No
  86. Forced                                   : No
  87. Text #4
  88. ID                                       : 6
  89. Format                                   : UTF-8
  90. Codec ID                                 : S_TEXT/UTF8
  91. Codec ID/Info                            : UTF-8 Plain Text
  92. Duration                                 : 1 h 39 min
  93. Bit rate                                 : 55 b/s
  94. Count of elements                        : 1145
  95. Stream size                              : 40.6 KiB (0%)
  96. Language                                 : Malay
  97. Default                                  : No
  98. Forced                                   : No
复制代码





                                       
                                       

                                       
                                       
                                       




回复

使用道具 举报

懒得打字嘛,点击右侧快捷回复 【右侧内容,后台自定义】
您需要登录后才可以回帖 登录 | 立即加入

本版积分规则

Archiver|小黑屋| 蓝光电影网 |网站地图

Copyright © 2021 Comsenz Inc. Powered by 蓝光电影网

蓝光电影网

本站内容由用户自主分享和转载自互联网,转载目的在于传递更多信息,并不代表本网赞同其观点和对其真实性负责。

如有侵权、违反国家法律政策行为,请联系我们,我们会第一时间及时清除和处理!

举报反馈邮箱:[email protected]

快速回复 返回顶部 返回列表