找回密码

蓝光电影网

查看: 26|回复: 0

[动作] 俄罗斯报废地堡计划/重啟生化武器 Project.12.The.Bunker.2016.1080p.AMZN.WEBRip.DDP5.1.x264-NTG 6.75GB

[复制链接]
蓝光币
515
发表于 2019-7-29 13:16:34 | 显示全部楼层 |阅读模式


◎译  名 俄罗斯报废地堡计划 / 重啟生化兵器(台)
◎片  名 Project 12: The Bunker
◎年  代 2016
◎产  地 西班牙
◎类  别 行动 / 科幻 / 冒险
◎语  言 英语
◎上映日期 2016-01-08(日本)
◎IMDb评分  3.3/10 from 301 users
◎IMDb链接  http://www.imdb.com/title/tt3157640
◎豆瓣评分 4.1/10 from 93 users
◎豆瓣链接 https://movie.douban.com/subject/26719190/
◎导  演 Jaime Falero
◎编  剧 Joaquín Sánchez , Jaime Falero
◎主  演 詹姆斯·卡沙莫 James Cosmo
      华金·桑切斯 Joaquín Sánchez
      娜塔莎·阿兰姆 Natasha Alam
      Eric Roberts
      提摩西·吉布斯 Timothy Gibbs
      托尼·科尔维略 Tony Corvillo

◎标  签 西班牙 | 行动 | 渣滓 | 科幻 | 西班牙电影 | 悬疑 | 犯罪 | 2016
◎简  介  
  在蘇聯戛然終止了一項能改變歷史的危險生化實驗之後,一切設施、報告和功效都被塵封,深深埋葬在地底深處。四十年後的本日,當初倖存的研讨人員雇了傭兵企圖重返地下堡垒,再次啟動計劃並據為己有。但他們沒想到的是,在地底下等著的似乎並不但要黑暗…
  1. Video
  2. ID                                       : 1
  3. Format                                   : AVC
  4. Format/Info                              : Advanced Video Codec
  5. Format profile                           : [email protected]
  6. Format settings                          : CABAC / 4 Ref Frames
  7. Format settings, CABAC                   : Yes
  8. Format settings, Reference frames        : 4 frames
  9. Codec ID                                 : V_MPEG4/ISO/AVC
  10. Duration                                 : 1 h 37 min
  11. Bit rate mode                            : Constant
  12. Bit rate                                 : 10 000 kb/s
  13. Width                                    : 1 920 pixels
  14. Height                                   : 800 pixels
  15. Display aspect ratio                     : 2.40:1
  16. Frame rate mode                          : Constant
  17. Frame rate                               : 23.976 (24000/1001) FPS
  18. Color space                              : YUV
  19. Chroma subsampling                       : 4:2:0
  20. Bit depth                                : 8 bits
  21. Scan type                                : Progressive
  22. Bits/(Pixel*Frame)                       : 0.272
  23. Stream size                              : 6.58 GiB (97%)
  24. Language                                 : English
  25. Default                                  : Yes
  26. Forced                                   : No
  27. Color range                              : Limited
  28. Color primaries                          : BT.709
  29. Transfer characteristics                 : BT.709
  30. Matrix coefficients                      : BT.709
  31. Audio
  32. ID                                       : 2
  33. Format                                   : E-AC-3
  34. Format/Info                              : Enhanced AC-3
  35. Commercial name                          : Dolby Digital Plus
  36. Codec ID                                 : A_EAC3
  37. Duration                                 : 1 h 37 min
  38. Bit rate mode                            : Constant
  39. Bit rate                                 : 256 kb/s
  40. Channel(s)                               : 6 channels
  41. Channel layout                           : L R C LFE Ls Rs
  42. Sampling rate                            : 48.0 kHz
  43. Frame rate                               : 31.250 FPS (1536 SPF)
  44. Compression mode                         : Lossy
  45. Stream size                              : 178 MiB (3%)
  46. Language                                 : English
  47. Service kind                             : Complete Main
  48. Default                                  : Yes
  49. Forced                                   : No
  50. Text
  51. ID                                       : 3
  52. Format                                   : UTF-8
  53. Codec ID                                 : S_TEXT/UTF8
  54. Codec ID/Info                            : UTF-8 Plain Text
  55. Duration                                 : 1 h 36 min
  56. Bit rate                                 : 30 b/s
  57. Count of elements                        : 1007
  58. Stream size                              : 21.3 KiB (0%)
  59. Title                                    : SDH
  60. Language                                 : English
  61. Default                                  : No
  62. Forced                                   : No
复制代码






                                       
                                       

                                       
                                       
                                       




回复

使用道具 举报

懒得打字嘛,点击右侧快捷回复 【右侧内容,后台自定义】
您需要登录后才可以回帖 登录 | 立即加入

本版积分规则

Archiver|小黑屋| 蓝光电影网 |网站地图

Copyright © 2021 Comsenz Inc. Powered by 蓝光电影网

蓝光电影网

本站内容由用户自主分享和转载自互联网,转载目的在于传递更多信息,并不代表本网赞同其观点和对其真实性负责。

如有侵权、违反国家法律政策行为,请联系我们,我们会第一时间及时清除和处理!

举报反馈邮箱:[email protected]

快速回复 返回顶部 返回列表