找回密码

蓝光电影网

查看: 15|回复: 0

[爱情] 圣诞游行 The.Christmas.Parade.2014.1080p.AMZN.WEBRip.DDP2.0.x264-alfaHD 5.98GB

[复制链接]
蓝光币
515
发表于 2020-7-16 21:12:27 | 显示全部楼层 |阅读模式


◎译  名 圣诞游行
◎片  名 the christmas parade
◎年  代 2014
◎产  地 美国
◎类  别 恋爱
◎上映日期 2014-12-14(美国)
◎IMDb评分  6.0/10 from 1092 users
◎IMDb链接  https://www.imdb.com/title/tt4065324
◎豆瓣评分 0/10 from 0 users
◎豆瓣链接 https://movie.douban.com/subject/26287299/
◎主  演 克里斯蒂安·马廷 Christian Martyn
       安娜琳·麦考德 AnnaLynne McCord
       杰斐逊·布朗 Jefferson Brown
       詹妮弗·吉布森 Jennifer Gibson
       Drew Scott

◎简  介

  
  Hailee Anderson (AnnaLynne McCord), the famous talk show host, is preparing for the holiday season by working; she's planning her very important TV show, her Christmas special. Already a scrooge, Hailee is even more miserable when she finds out her real-estate fiancée Jason (Drew Scott) is cheating on her - on air. To clear her head, she goes on a drive and ends up in Carver Bend, Connecticut, unfortunately crashing through a local judge's fence. Forced to do community service, she helps out her rescuer Logan (Jefferson Brown), by building a float for the town's annual Christmas parade to help save the town's art center. While Hailee bonds with the locals, the art center kids, and grows closer to Logan, she re-learns why the holidays are important to spend with
  1. Video
  2. ID                                       : 1
  3. Format                                   : AVC
  4. Format/Info                              : Advanced Video Codec
  5. Format profile                           : [email protected]
  6. Format settings                          : CABAC / 4 Ref Frames
  7. Format settings, CABAC                   : Yes
  8. Format settings, Reference frames        : 4 frames
  9. Codec ID                                 : V_MPEG4/ISO/AVC
  10. Duration                                 : 1 h 25 min
  11. Bit rate mode                            : Constant
  12. Bit rate                                 : 10 000 kb/s
  13. Width                                    : 1 920 pixels
  14. Height                                   : 1 080 pixels
  15. Display aspect ratio                     : 16:9
  16. Frame rate mode                          : Constant
  17. Frame rate                               : 23.976 (24000/1001/189150) FPS
  18. Color space                              : YUV
  19. Chroma subsampling                       : 4:2:0
  20. Bit depth                                : 8 bits
  21. Scan type                                : Progressive
  22. Bits/(Pixel*Frame)                       : 0.201
  23. Stream size                              : 5.84 GiB (98%)
  24. Default                                  : Yes
  25. Forced                                   : No
  26. Color range                              : Limited
  27. Color primaries                          : BT.709
  28. Transfer characteristics                 : BT.709
  29. Matrix coefficients                      : BT.709
  30. Audio
  31. ID                                       : 2
  32. Format                                   : E-AC-3
  33. Format/Info                              : Enhanced AC-3
  34. Commercial name                          : Dolby Digital Plus
  35. Codec ID                                 : A_EAC3
  36. Duration                                 : 1 h 25 min
  37. Bit rate mode                            : Constant
  38. Bit rate                                 : 224 kb/s
  39. Channel(s)                               : 2 channels
  40. Channel layout                           : L R
  41. Sampling rate                            : 48.0 kHz
  42. Frame rate                               : 31.250 FPS (1536 SPF)
  43. Compression mode                         : Lossy
  44. Stream size                              : 137 MiB (2%)
  45. Language                                 : English
  46. Service kind                             : Complete Main
  47. Default                                  : Yes
  48. Forced                                   : No
  49. Text #1
  50. ID                                       : 3
  51. Format                                   : UTF-8
  52. Codec ID                                 : S_TEXT/UTF8
  53. Codec ID/Info                            : UTF-8 Plain Text
  54. Duration                                 : 1 h 24 min
  55. Bit rate                                 : 83 b/s
  56. Count of elements                        : 1613
  57. Stream size                              : 51.8 KiB (0%)
  58. Language                                 : English
  59. Default                                  : No
  60. Forced                                   : No
  61. Text #2
  62. ID                                       : 4
  63. Format                                   : UTF-8
  64. Codec ID                                 : S_TEXT/UTF8
  65. Codec ID/Info                            : UTF-8 Plain Text
  66. Duration                                 : 1 h 25 min
  67. Bit rate                                 : 83 b/s
  68. Count of elements                        : 1681
  69. Stream size                              : 52.0 KiB (0%)
  70. Title                                    : SDH
  71. Language                                 : English
  72. Default                                  : No
  73. Forced                                   : No
复制代码






                                       
                                       

                                       
                                       
                                       




回复

使用道具 举报

懒得打字嘛,点击右侧快捷回复 【右侧内容,后台自定义】
您需要登录后才可以回帖 登录 | 立即加入

本版积分规则

Archiver|小黑屋| 蓝光电影网 |网站地图

Copyright © 2021 Comsenz Inc. Powered by 蓝光电影网

蓝光电影网

本站内容由用户自主分享和转载自互联网,转载目的在于传递更多信息,并不代表本网赞同其观点和对其真实性负责。

如有侵权、违反国家法律政策行为,请联系我们,我们会第一时间及时清除和处理!

举报反馈邮箱:[email protected]

快速回复 返回顶部 返回列表