找回密码

蓝光电影网

查看: 9|回复: 0

[动作] 夏福特 Shaft.2019.1080p.NF.WEBRip.DD5.1.x264-NTG 3.79GB

[复制链接]
蓝光币
515
发表于 2019-6-28 19:43:13 | 显示全部楼层 |阅读模式


◎译  名 夏福特 / Shaft 2 / Son of Shaft / 夏福特之子 / 杀戮战警2 / 铁杆神探2
◎片  名 Shaft
◎年  代 2019
◎产  地 美国
◎类  别 行动 / 犯罪
◎语  言 英语
◎上映日期 2019-06-14(美国)
◎IMDb评分  6.3/10 from 1912 users
◎IMDb链接  http://www.imdb.com/title/tt4463894
◎豆瓣评分 7.5/10 from 77 users
◎豆瓣链接 https://movie.douban.com/subject/27116384/
◎片  长 111分钟
◎导  演 蒂姆·斯托瑞 Tim Story
◎编  剧 肯尼亚·巴里斯 Kenya Barris / 亚历克斯·巴诺 Alex Barnow / 欧内斯特·泰迪曼 Ernest Tidyman
◎主  演 塞缪尔·杰克逊 Samuel L. Jackson
      杰西·厄舍 Jessie Usher
      理查德·朗德特里 Richard Roundtree
      雷吉娜·赫尔 Regina Hall
      亚历山德拉·希普 Alexandra Shipp
      马特·劳里亚 Matt Lauria
      提图斯·维里沃 Titus Welliver
      马索·曼恩 Method Man
      伊萨赫·德·班克尔 Isaach De Bankolé
      阿万·乔贾 Avan Jogia
      劳伦·维勒斯 Lauren Vélez
      伊恩·卡塞尔伯里 Ian Casselberry
      西尔维娅·杰弗里斯 Sylvia Jefferies
      迈克·顿斯顿 Mike Dunston
      查尔斯·格林 Charles Green
      艾德丽安·C·摩尔 Adrienne C. Moore
      乔恩·亚瑟 Jon Arthur
      肖恩·贝克 Sean Baker
      蒂莫西·卡尔 Timothy Carr
      大卫·邓斯顿 David Dunston
      何塞·阿尔弗雷多·费尔南德斯 José Alfredo Fernandez
      安东尼·B·哈里斯 Anthony B. Harris
      德梅特里·兰德尔 Demetri Landell
      汉斯·马雷罗 Hans Marrero
      布赖希亚·马歇尔 Brayhia Marshall
      肖恩·麦克米伦 Shaun McMillan
      本杰明·韦弗 Benjamin Weaver

◎标  签 行动 | 笑剧 | 美国 | 2019 | 犯罪 | 黑人 | 华纳 | 影院
◎简  介  
  杰西·厄舍加盟[杀戮战警]续作[夏福特之子](Son of Shaft,暂译),塞缪尔·杰克逊同时回归。本片由蒂姆·斯托瑞([佐州自救兄弟])执导,肯尼亚·巴里斯编剧。厄舍饰演杰克逊的儿子,他同时也是一位联邦观察局工作职员,更是收集专家。
  1. Video
  2. ID                                       : 1
  3. Format                                   : AVC
  4. Format/Info                              : Advanced Video Codec
  5. Format profile                           : [email protected]
  6. Format settings                          : CABAC / 3 Ref Frames
  7. Format settings, CABAC                   : Yes
  8. Format settings, ReFrames                : 3 frames
  9. Codec ID                                 : V_MPEG4/ISO/AVC
  10. Duration                                 : 1 h 52 min
  11. Bit rate mode                            : Variable
  12. Bit rate                                 : 4 220 kb/s
  13. Maximum bit rate                         : 6 330 kb/s
  14. Width                                    : 1 920 pixels
  15. Height                                   : 1 080 pixels
  16. Display aspect ratio                     : 16:9
  17. Frame rate mode                          : Constant
  18. Frame rate                               : 24.000 FPS
  19. Color space                              : YUV
  20. Chroma subsampling                       : 4:2:0
  21. Bit depth                                : 8 bits
  22. Scan type                                : Progressive
  23. Bits/(Pixel*Frame)                       : 0.085
  24. Stream size                              : 3.28 GiB (87%)
  25. Writing library                          : x264 core 148 r2715 7e75228
  26. Encoding settings                        : cabac=1 / ref=3 / deblock=1:0:0 / analyse=0x1:0x111 / me=umh / subme=10 / psy=1 / psy_rd=1.00:0.00 / mixed_ref=1 / me_range=24 / chroma_me=1 / trellis=2 / 8x8dct=0 / cqm=0 / deadzone=21,11 / fast_pskip=1 / chroma_qp_offset=-2 / threads=6 / lookahead_threads=1 / sliced_threads=0 / nr=0 / decimate=1 / interlaced=0 / bluray_compat=0 / stitchable=1 / constrained_intra=0 / bframes=2 / b_pyramid=0 / b_adapt=2 / b_bias=0 / direct=3 / weightb=1 / open_gop=0 / weightp=2 / keyint=48 / keyint_min=25 / scenecut=0 / intra_refresh=0 / rc_lookahead=48 / rc=2pass / mbtree=1 / bitrate=4220 / ratetol=1.0 / qcomp=0.50 / qpmin=6 / qpmax=51 / qpstep=4 / cplxblur=20.0 / qblur=0.5 / vbv_maxrate=6330 / vbv_bufsize=8440 / nal_hrd=vbr / filler=0 / ip_ratio=1.40 / aq=1:1.00
  27. Language                                 : English
  28. Default                                  : Yes
  29. Forced                                   : No
  30. Audio
  31. ID                                       : 2
  32. Format                                   : AC-3
  33. Format/Info                              : Audio Coding 3
  34. Commercial name                          : Dolby Digital
  35. Codec ID                                 : A_AC3
  36. Duration                                 : 1 h 52 min
  37. Bit rate mode                            : Constant
  38. Bit rate                                 : 640 kb/s
  39. Channel(s)                               : 6 channels
  40. Channel layout                           : L R C LFE Ls Rs
  41. Sampling rate                            : 48.0 kHz
  42. Frame rate                               : 31.250 FPS (1536 SPF)
  43. Bit depth                                : 16 bits
  44. Compression mode                         : Lossy
  45. Stream size                              : 513 MiB (13%)
  46. Language                                 : English
  47. Service kind                             : Complete Main
  48. Default                                  : Yes
  49. Forced                                   : No
  50. Text #1
  51. ID                                       : 3
  52. Format                                   : UTF-8
  53. Codec ID                                 : S_TEXT/UTF8
  54. Codec ID/Info                            : UTF-8 Plain Text
  55. Duration                                 : 1 h 51 min
  56. Bit rate                                 : 89 b/s
  57. Count of elements                        : 2210
  58. Stream size                              : 73.2 KiB (0%)
  59. Language                                 : English
  60. Default                                  : Yes
  61. Forced                                   : No
  62. Text #2
  63. ID                                       : 4
  64. Format                                   : UTF-8
  65. Codec ID                                 : S_TEXT/UTF8
  66. Codec ID/Info                            : UTF-8 Plain Text
  67. Duration                                 : 1 h 51 min
  68. Bit rate                                 : 99 b/s
  69. Count of elements                        : 2515
  70. Stream size                              : 81.0 KiB (0%)
  71. Title                                    : SDH
  72. Language                                 : English
  73. Default                                  : No
  74. Forced                                   : No
  75. Text #3
  76. ID                                       : 5
  77. Format                                   : UTF-8
  78. Codec ID                                 : S_TEXT/UTF8
  79. Codec ID/Info                            : UTF-8 Plain Text
  80. Duration                                 : 1 h 50 min
  81. Bit rate                                 : 128 b/s
  82. Count of elements                        : 1839
  83. Stream size                              : 104 KiB (0%)
  84. Language                                 : Arabic
  85. Default                                  : No
  86. Forced                                   : No
  87. Text #4
  88. ID                                       : 6
  89. Format                                   : UTF-8
  90. Codec ID                                 : S_TEXT/UTF8
  91. Codec ID/Info                            : UTF-8 Plain Text
  92. Duration                                 : 1 h 50 min
  93. Bit rate                                 : 68 b/s
  94. Count of elements                        : 1978
  95. Stream size                              : 55.2 KiB (0%)
  96. Language                                 : Czech
  97. Default                                  : No
  98. Forced                                   : No
  99. Text #5
  100. ID                                       : 7
  101. Format                                   : UTF-8
  102. Codec ID                                 : S_TEXT/UTF8
  103. Codec ID/Info                            : UTF-8 Plain Text
  104. Duration                                 : 1 h 50 min
  105. Bit rate                                 : 57 b/s
  106. Count of elements                        : 1391
  107. Stream size                              : 46.5 KiB (0%)
  108. Language                                 : Danish
  109. Default                                  : No
  110. Forced                                   : No
  111. Text #6
  112. ID                                       : 8
  113. Format                                   : UTF-8
  114. Codec ID                                 : S_TEXT/UTF8
  115. Codec ID/Info                            : UTF-8 Plain Text
  116. Duration                                 : 1 h 50 min
  117. Bit rate                                 : 63 b/s
  118. Count of elements                        : 1785
  119. Stream size                              : 51.5 KiB (0%)
  120. Language                                 : German
  121. Default                                  : No
  122. Forced                                   : No
  123. Text #7
  124. ID                                       : 9
  125. Format                                   : UTF-8
  126. Codec ID                                 : S_TEXT/UTF8
  127. Codec ID/Info                            : UTF-8 Plain Text
  128. Duration                                 : 1 h 50 min
  129. Bit rate                                 : 104 b/s
  130. Count of elements                        : 1880
  131. Stream size                              : 84.5 KiB (0%)
  132. Language                                 : Greek
  133. Default                                  : No
  134. Forced                                   : No
  135. Text #8
  136. ID                                       : 10
  137. Format                                   : UTF-8
  138. Codec ID                                 : S_TEXT/UTF8
  139. Codec ID/Info                            : UTF-8 Plain Text
  140. Duration                                 : 1 h 50 min
  141. Bit rate                                 : 63 b/s
  142. Count of elements                        : 1731
  143. Stream size                              : 51.5 KiB (0%)
  144. Language                                 : Spanish
  145. Default                                  : No
  146. Forced                                   : No
  147. Text #9
  148. ID                                       : 11
  149. Format                                   : UTF-8
  150. Codec ID                                 : S_TEXT/UTF8
  151. Codec ID/Info                            : UTF-8 Plain Text
  152. Duration                                 : 1 h 50 min
  153. Bit rate                                 : 60 b/s
  154. Count of elements                        : 1946
  155. Stream size                              : 48.8 KiB (0%)
  156. Title                                    : European
  157. Language                                 : Spanish
  158. Default                                  : No
  159. Forced                                   : No
  160. Text #10
  161. ID                                       : 12
  162. Format                                   : UTF-8
  163. Codec ID                                 : S_TEXT/UTF8
  164. Codec ID/Info                            : UTF-8 Plain Text
  165. Duration                                 : 1 h 50 min
  166. Bit rate                                 : 59 b/s
  167. Count of elements                        : 1974
  168. Stream size                              : 48.0 KiB (0%)
  169. Language                                 : Finnish
  170. Default                                  : No
  171. Forced                                   : No
  172. Text #11
  173. ID                                       : 13
  174. Format                                   : UTF-8
  175. Codec ID                                 : S_TEXT/UTF8
  176. Codec ID/Info                            : UTF-8 Plain Text
  177. Duration                                 : 1 h 50 min
  178. Bit rate                                 : 73 b/s
  179. Count of elements                        : 1777
  180. Stream size                              : 59.3 KiB (0%)
  181. Language                                 : French
  182. Default                                  : No
  183. Forced                                   : No
  184. Text #12
  185. ID                                       : 14
  186. Format                                   : UTF-8
  187. Codec ID                                 : S_TEXT/UTF8
  188. Codec ID/Info                            : UTF-8 Plain Text
  189. Duration                                 : 1 h 50 min
  190. Bit rate                                 : 103 b/s
  191. Count of elements                        : 1778
  192. Stream size                              : 83.9 KiB (0%)
  193. Language                                 : Hebrew
  194. Default                                  : No
  195. Forced                                   : No
  196. Text #13
  197. ID                                       : 15
  198. Format                                   : UTF-8
  199. Codec ID                                 : S_TEXT/UTF8
  200. Codec ID/Info                            : UTF-8 Plain Text
  201. Duration                                 : 1 h 50 min
  202. Bit rate                                 : 166 b/s
  203. Count of elements                        : 1988
  204. Stream size                              : 134 KiB (0%)
  205. Language                                 : Hindi
  206. Default                                  : No
  207. Forced                                   : No
  208. Text #14
  209. ID                                       : 16
  210. Format                                   : UTF-8
  211. Codec ID                                 : S_TEXT/UTF8
  212. Codec ID/Info                            : UTF-8 Plain Text
  213. Duration                                 : 1 h 50 min
  214. Bit rate                                 : 61 b/s
  215. Count of elements                        : 1963
  216. Stream size                              : 49.9 KiB (0%)
  217. Language                                 : Hungarian
  218. Default                                  : No
  219. Forced                                   : No
  220. Text #15
  221. ID                                       : 17
  222. Format                                   : UTF-8
  223. Codec ID                                 : S_TEXT/UTF8
  224. Codec ID/Info                            : UTF-8 Plain Text
  225. Duration                                 : 1 h 50 min
  226. Bit rate                                 : 66 b/s
  227. Count of elements                        : 1848
  228. Stream size                              : 53.4 KiB (0%)
  229. Language                                 : Indonesian
  230. Default                                  : No
  231. Forced                                   : No
  232. Text #16
  233. ID                                       : 18
  234. Format                                   : UTF-8
  235. Codec ID                                 : S_TEXT/UTF8
  236. Codec ID/Info                            : UTF-8 Plain Text
  237. Duration                                 : 1 h 50 min
  238. Bit rate                                 : 66 b/s
  239. Count of elements                        : 1867
  240. Stream size                              : 53.8 KiB (0%)
  241. Language                                 : Italian
  242. Default                                  : No
  243. Forced                                   : No
  244. Text #17
  245. ID                                       : 19
  246. Format                                   : UTF-8
  247. Codec ID                                 : S_TEXT/UTF8
  248. Codec ID/Info                            : UTF-8 Plain Text
  249. Duration                                 : 1 h 50 min
  250. Bit rate                                 : 51 b/s
  251. Count of elements                        : 1813
  252. Stream size                              : 41.9 KiB (0%)
  253. Language                                 : Japanese
  254. Default                                  : No
  255. Forced                                   : No
  256. Text #18
  257. ID                                       : 20
  258. Format                                   : UTF-8
  259. Codec ID                                 : S_TEXT/UTF8
  260. Codec ID/Info                            : UTF-8 Plain Text
  261. Duration                                 : 1 h 50 min
  262. Bit rate                                 : 71 b/s
  263. Count of elements                        : 1961
  264. Stream size                              : 57.5 KiB (0%)
  265. Language                                 : Korean
  266. Default                                  : No
  267. Forced                                   : No
  268. Text #19
  269. ID                                       : 21
  270. Format                                   : UTF-8
  271. Codec ID                                 : S_TEXT/UTF8
  272. Codec ID/Info                            : UTF-8 Plain Text
  273. Duration                                 : 1 h 50 min
  274. Bit rate                                 : 59 b/s
  275. Count of elements                        : 1914
  276. Stream size                              : 48.3 KiB (0%)
  277. Language                                 : Norwegian Bokmal
  278. Default                                  : No
  279. Forced                                   : No
  280. Text #20
  281. ID                                       : 22
  282. Format                                   : UTF-8
  283. Codec ID                                 : S_TEXT/UTF8
  284. Codec ID/Info                            : UTF-8 Plain Text
  285. Duration                                 : 1 h 50 min
  286. Bit rate                                 : 56 b/s
  287. Count of elements                        : 1473
  288. Stream size                              : 45.9 KiB (0%)
  289. Language                                 : Dutch
  290. Default                                  : No
  291. Forced                                   : No
  292. Text #21
  293. ID                                       : 23
  294. Format                                   : UTF-8
  295. Codec ID                                 : S_TEXT/UTF8
  296. Codec ID/Info                            : UTF-8 Plain Text
  297. Duration                                 : 1 h 50 min
  298. Bit rate                                 : 55 b/s
  299. Count of elements                        : 1868
  300. Stream size                              : 44.9 KiB (0%)
  301. Language                                 : Polish
  302. Default                                  : No
  303. Forced                                   : No
  304. Text #22
  305. ID                                       : 24
  306. Format                                   : UTF-8
  307. Codec ID                                 : S_TEXT/UTF8
  308. Codec ID/Info                            : UTF-8 Plain Text
  309. Duration                                 : 1 h 50 min
  310. Bit rate                                 : 63 b/s
  311. Count of elements                        : 1902
  312. Stream size                              : 51.4 KiB (0%)
  313. Language                                 : Portuguese
  314. Default                                  : No
  315. Forced                                   : No
  316. Text #23
  317. ID                                       : 25
  318. Format                                   : UTF-8
  319. Codec ID                                 : S_TEXT/UTF8
  320. Codec ID/Info                            : UTF-8 Plain Text
  321. Duration                                 : 1 h 50 min
  322. Bit rate                                 : 65 b/s
  323. Count of elements                        : 1896
  324. Stream size                              : 53.0 KiB (0%)
  325. Title                                    : Brazilian
  326. Language                                 : Portuguese
  327. Default                                  : No
  328. Forced                                   : No
  329. Text #24
  330. ID                                       : 26
  331. Format                                   : UTF-8
  332. Codec ID                                 : S_TEXT/UTF8
  333. Codec ID/Info                            : UTF-8 Plain Text
  334. Duration                                 : 1 h 50 min
  335. Bit rate                                 : 64 b/s
  336. Count of elements                        : 1900
  337. Stream size                              : 51.7 KiB (0%)
  338. Language                                 : Romanian
  339. Default                                  : No
  340. Forced                                   : No
  341. Text #25
  342. ID                                       : 27
  343. Format                                   : UTF-8
  344. Codec ID                                 : S_TEXT/UTF8
  345. Codec ID/Info                            : UTF-8 Plain Text
  346. Duration                                 : 1 h 50 min
  347. Bit rate                                 : 119 b/s
  348. Count of elements                        : 1990
  349. Stream size                              : 96.9 KiB (0%)
  350. Language                                 : Russian
  351. Default                                  : No
  352. Forced                                   : No
  353. Text #26
  354. ID                                       : 28
  355. Format                                   : UTF-8
  356. Codec ID                                 : S_TEXT/UTF8
  357. Codec ID/Info                            : UTF-8 Plain Text
  358. Duration                                 : 1 h 50 min
  359. Bit rate                                 : 63 b/s
  360. Count of elements                        : 1627
  361. Stream size                              : 51.1 KiB (0%)
  362. Language                                 : Swedish
  363. Default                                  : No
  364. Forced                                   : No
  365. Text #27
  366. ID                                       : 29
  367. Format                                   : UTF-8
  368. Codec ID                                 : S_TEXT/UTF8
  369. Codec ID/Info                            : UTF-8 Plain Text
  370. Duration                                 : 1 h 50 min
  371. Bit rate                                 : 148 b/s
  372. Count of elements                        : 1984
  373. Stream size                              : 120 KiB (0%)
  374. Language                                 : Thai
  375. Default                                  : No
  376. Forced                                   : No
  377. Text #28
  378. ID                                       : 30
  379. Format                                   : UTF-8
  380. Codec ID                                 : S_TEXT/UTF8
  381. Codec ID/Info                            : UTF-8 Plain Text
  382. Duration                                 : 1 h 50 min
  383. Bit rate                                 : 62 b/s
  384. Count of elements                        : 1941
  385. Stream size                              : 50.7 KiB (0%)
  386. Language                                 : Turkish
  387. Default                                  : No
  388. Forced                                   : No
  389. Text #29
  390. ID                                       : 31
  391. Format                                   : UTF-8
  392. Codec ID                                 : S_TEXT/UTF8
  393. Codec ID/Info                            : UTF-8 Plain Text
  394. Duration                                 : 1 h 50 min
  395. Bit rate                                 : 84 b/s
  396. Count of elements                        : 1955
  397. Stream size                              : 68.1 KiB (0%)
  398. Language                                 : Vietnamese
  399. Default                                  : No
  400. Forced                                   : No
  401. Text #30
  402. ID                                       : 32
  403. Format                                   : UTF-8
  404. Codec ID                                 : S_TEXT/UTF8
  405. Codec ID/Info                            : UTF-8 Plain Text
  406. Duration                                 : 1 h 50 min
  407. Bit rate                                 : 64 b/s
  408. Count of elements                        : 1980
  409. Stream size                              : 51.8 KiB (0%)
  410. Title                                    : Simplified
  411. Language                                 : Chinese
  412. Default                                  : No
  413. Forced                                   : No
  414. Text #31
  415. ID                                       : 33
  416. Format                                   : UTF-8
  417. Codec ID                                 : S_TEXT/UTF8
  418. Codec ID/Info                            : UTF-8 Plain Text
  419. Duration                                 : 1 h 50 min
  420. Bit rate                                 : 68 b/s
  421. Count of elements                        : 1982
  422. Stream size                              : 55.1 KiB (0%)
  423. Title                                    : Traditional
  424. Language                                 : Chinese
  425. Default                                  : No
  426. Forced                                   : No
复制代码






                                       
                                       

                                       
                                       
                                       




回复

使用道具 举报

懒得打字嘛,点击右侧快捷回复 【右侧内容,后台自定义】
您需要登录后才可以回帖 登录 | 立即加入

本版积分规则

Archiver|小黑屋| 蓝光电影网 |网站地图

Copyright © 2021 Comsenz Inc. Powered by 蓝光电影网

蓝光电影网

本站内容由用户自主分享和转载自互联网,转载目的在于传递更多信息,并不代表本网赞同其观点和对其真实性负责。

如有侵权、违反国家法律政策行为,请联系我们,我们会第一时间及时清除和处理!

举报反馈邮箱:[email protected]

快速回复 返回顶部 返回列表