找回密码

蓝光电影网

查看: 20|回复: 0

[动作] 匿名杀手 Killers.Anonymous.2019.1080p.WEB-DL.DD5.1.H264-FGT 3.36GB

[复制链接]
蓝光币
515
发表于 2019-6-28 16:56:33 | 显示全部楼层 |阅读模式


◎译  名 匿名杀手
◎片  名 Killers Anonymous
◎年  代 2019
◎产  地 英国
◎类  别 行动 / 悬疑 / 惊悚 / 犯罪
◎语  言 英语
◎IMDb链接  http://www.imdb.com/title/tt8400758
◎豆瓣评分 0/10 from 0 users
◎豆瓣链接 https://movie.douban.com/subject/30270757/
◎导  演 Martin Owen
◎编  剧 Seth Johnson / Elizabeth Morris / Martin Owen
◎主  演 加里·奥德曼 Gary Oldman
      杰西卡·阿尔芭 Jessica Alba
      苏琪·沃特豪斯 Suki Waterhouse
      汤米·弗拉纳根 Tommy Flanagan
      玛安娜·本灵 MyAnna Buring
      蒂姆·麦克纳尼 Tim McInnerny
      珊迪·弗罗斯特 Sadie Frost
      迈克尔·索恰 Michael Socha
      山姆·哈兹尔丁 Sam Hazeldine
      伊莎贝尔·艾伦 Isabelle Allen
      露丝·霍洛克斯 Ruth Horrocks
      Rhyon Nicole Brown
      Elliot James Langridge

◎标  签 加里·奥德曼 | 杰西卡·阿尔芭 | 英国电影 | 惊悚 | 行动 | 2019 | TBA | GaryOldman
◎简  介  
  加里·奥德曼、杰西卡·阿尔芭加盟惊悚片[知名杀手](Killers Anonymous,暂译)。该片由马丁·欧文([一路入魔])执导,今朝正在伦敦拍摄。卡司还有汤米·弗拉纳根(《紊乱之子》)、山姆·哈兹尔丁([机械师2:新生])等。黑暗之音告诉我们要吹灭他人生命的火焰。你规矩浅笑着与陌生人擦肩而过,却完全认识不到他们当下的杀意。这些杀手们有的深爱杀戮,有的不想再杀,他们需要倾吐和凝听。
  1. Video
  2. ID                                       : 1
  3. Format                                   : AVC
  4. Format/Info                              : Advanced Video Codec
  5. Format profile                           : [email protected]
  6. Format settings                          : CABAC / 5 Ref Frames
  7. Format settings, CABAC                   : Yes
  8. Format settings, ReFrames                : 5 frames
  9. Codec ID                                 : V_MPEG4/ISO/AVC
  10. Duration                                 : 1 h 35 min
  11. Bit rate                                 : 4 632 kb/s
  12. Width                                    : 1 912 pixels
  13. Height                                   : 808 pixels
  14. Display aspect ratio                     : 2.35:1
  15. Frame rate mode                          : Constant
  16. Frame rate                               : 23.976 (24000/1001) FPS
  17. Color space                              : YUV
  18. Chroma subsampling                       : 4:2:0
  19. Bit depth                                : 8 bits
  20. Scan type                                : Progressive
  21. Bits/(Pixel*Frame)                       : 0.125
  22. Stream size                              : 3.10 GiB (92%)
  23. Title                                    : Killers.Anonymous.2019.1080p.WEB-DL.DD5.1.H264-FGT
  24. Language                                 : English
  25. Default                                  : Yes
  26. Forced                                   : No
  27. Color range                              : Limited
  28. Color primaries                          : BT.709
  29. Transfer characteristics                 : BT.709
  30. Matrix coefficients                      : BT.709
  31. Audio
  32. ID                                       : 2
  33. Format                                   : AC-3
  34. Format/Info                              : Audio Coding 3
  35. Commercial name                          : Dolby Digital
  36. Codec ID                                 : A_AC3
  37. Duration                                 : 1 h 35 min
  38. Bit rate mode                            : Constant
  39. Bit rate                                 : 384 kb/s
  40. Channel(s)                               : 6 channels
  41. Channel layout                           : L R C LFE Ls Rs
  42. Sampling rate                            : 48.0 kHz
  43. Frame rate                               : 31.250 FPS (1536 SPF)
  44. Bit depth                                : 16 bits
  45. Compression mode                         : Lossy
  46. Stream size                              : 263 MiB (8%)
  47. Title                                    : Killers.Anonymous.2019.1080p.WEB-DL.DD5.1.H264-FGT
  48. Language                                 : English
  49. Service kind                             : Complete Main
  50. Default                                  : Yes
  51. Forced                                   : No
  52. Menu
  53. 00:00:00.000                             : en:1
  54. 00:09:00.000                             : en:2
  55. 00:17:39.000                             : en:3
  56. 00:28:41.000                             : en:4
  57. 00:38:04.000                             : en:5
  58. 00:48:24.000                             : en:6
  59. 00:58:53.000                             : en:7
  60. 01:08:01.000                             : en:8
  61. 01:19:18.000                             : en:9
  62. 01:30:13.000                             : en:10
复制代码






                                       
                                       

                                       
                                       
                                       




回复

使用道具 举报

懒得打字嘛,点击右侧快捷回复 【右侧内容,后台自定义】
您需要登录后才可以回帖 登录 | 立即加入

本版积分规则

Archiver|小黑屋| 蓝光电影网 |网站地图

Copyright © 2021 Comsenz Inc. Powered by 蓝光电影网

蓝光电影网

本站内容由用户自主分享和转载自互联网,转载目的在于传递更多信息,并不代表本网赞同其观点和对其真实性负责。

如有侵权、违反国家法律政策行为,请联系我们,我们会第一时间及时清除和处理!

举报反馈邮箱:[email protected]

快速回复 返回顶部 返回列表